当前位置:
首页 » 动作片 » 变异编年史

变异编年史_突变末日The.Mutant.Chronicles.2008.1080p.BluRay.x264.DTS-FGT7.82GB

变异编年史_突变末日 The.Mutant.Chronicles.2008.1080p.BluRay.x264.DTS-FGT 7.82GB

演员:托马斯·简 朗·普尔曼 戴文青木 西恩·帕特维 班诺·福曼

导演: 西蒙·亨特 地区: 美国集数: 0集年代: 2008时间: 111分钟豆瓣评分: 5.2

《变异编年史》海报

◎译 名 变异编年史/突变末日(台)

◎片 名 Mutant Chronicles

◎年 代 2008

◎国 家 美国

◎类 别 动作/冒险/恐怖/科幻

◎语 言 英语

◎上映日期 2008-08-07

◎IMDb评分 5.2/10 from 23,017 users

◎豆瓣评分 5.2/10 from 4,387 users

◎片 长 111 分钟

◎导 演 西蒙·亨特 Simon Hunter

◎主 演 托马斯·简 Thomas Jane

朗·普尔曼 Ron Perlman

戴文青木 Devon Aoki

西恩·帕特维 Sean Pertwee

班诺·福曼 Benno Fürmann

变异编年史剧情介绍:

  未来世界,人类社会由四个权力体掌控。三岛统治东方,鲍豪斯统治欧洲,伊比里奥统治非洲,卡比特尔则统治着美洲。此时地球能源几近枯竭,疾病灾祸肆意横行。为了争夺有限的资源,这四个权力体的战争不断,此消彼长。时间来至2707年,在鲍豪斯和卡比特尔正在进行一场血腥残酷的战争,剧烈的爆炸摧毁了一个古老的封印,双方士兵随后面临新的敌人--残忍无度的变异人。原来他们的炮火无意中使冰河时代末期来自外太空的神秘机器重新启动,它可以将人类转化为残忍血腥、丧失人性的变异人,并且有如病毒一般以极快的速度蔓延。地球危在旦夕之时,统治者们抛弃地球独自逃亡。而幸存者们则要找到古老的兄弟会以及他们口中的编年史,继而找出彻底消灭变异人的办法--

Video

ID : 1

Format : AVC

Format/Info : Advanced Video Codec

Format profile : [email protected]

Format settings, CABAC : Yes

Format settings, ReFrames : 3 frames

Codec ID : V_MPEG4/ISO/AVC

Duration : 1h 51mn

Bit rate mode : Variable

Bit rate : 8 669 Kbps

Maximum bit rate : 38.0 Mbps

Width : 1 920 pixels

Height : 1 040 pixels

Display aspect ratio : 1.85:1

Frame rate mode : Constant

Frame rate : 23.976 fps

Color space : YUV

Chroma subsampling : 4:2:0

Bit depth : 8 bits

Scan type : Progressive

Bits/(Pixel*Frame) : 0.181

Stream size : 6.49 GiB (83%)

Writing library : x264 core 65 r1024M 2652abe

Encoding settings : cabac=1 / ref=3 / deblock=1:-1:-1 / analyse=0x3:0x113 / me=umh / subme=6 / psy_rd=1.0:1.0 / mixed_ref=1 / me_range=16 / chroma_me=1 / trellis=2 / 8x8dct=1 / cqm=0 / deadzone=21,11 / chroma_qp_offset=-4 / threads=3 / nr=0 / decimate=1 / mbaff=0 / bframes=3 / b_pyramid=0 / b_adapt=1 / b_bias=0 / direct=3 / wpredb=1 / keyint=24 / keyint_min=1 / scenecut=40(pre) / rc=2pass / bitrate=8669 / ratetol=3.0 / qcomp=0.50 / qpmin=1 / qpmax=40 / qpstep=8 / cplxblur=20.0 / qblur=0.5 / vbv_maxrate=38000 / vbv_bufsize=30000 / ip_ratio=1.10 / pb_ratio=1.10 / aq=1:0.60

Language : English

Default : Yes

Forced : No

Audio

ID : 2

Format : DTS

Format/Info : Digital Theater Systems

Mode : 16

Format settings, Endianness : Big

Codec ID : A_DTS

Duration : 1h 51mn

Bit rate mode : Constant

Bit rate : 1 509 Kbps

Channel(s) : 6 channels

Channel positions : Front: L C R, Side: L R, LFE

Sampling rate : 48.0 KHz

Bit depth : 24 bits

Compression mode : Lossy

Stream size : 1.17 GiB (15%)

Language : English

Default : Yes

Forced : No

Text

ID : 3

Format : UTF-8

Codec ID : S_TEXT/UTF8

Codec ID/Info : UTF-8 Plain Text

Language : English

Default : Yes

Forced : No

《变异编年史》剧照-1

  温馨提示:您正在浏览的"《变异编年史》BT种子下载"的剧情介绍来自于[www.92np.com-就爱那片儿],如果您喜欢本站,请推荐给您的朋友,谢谢您的支持! 最后更新:2015年09月04日

变异编年史电影下载:

提示:推荐使用BitComet、Utorrent、QQ旋风、迅雷下载变异编年史。喜欢在线看的朋友可以把种子上传到百度网盘、115网盘,离线下载完手机电脑都可以在线看。

变异编年史电影评论

更多精彩电影