当前位置:
首页 » 动作片 » 惊涛大冒险

惊涛大冒险_海防守护人The.Guardian.2006.1080p.BluRay.x264.DD5.1-FGT10.34GB

惊涛大冒险_海防守护人 The.Guardian.2006.1080p.BluRay.x264.DD5.1-FGT 10.34GB

演员:凯文·科斯特纳 阿什顿·库彻 尼尔·麦克唐纳 克兰西·布朗

导演: 安德鲁·戴维斯 地区: 美国集数: 0集年代: 2006时间: 127分钟豆瓣评分: 7.5

《惊涛大冒险》海报

◎译 名 惊涛大冒险/海防守护人/惊涛抢救/守护者/救生员/监护人/捍卫者/海防最前线

◎片 名 The Guardian

◎年 代 2006

◎国 家 美国

◎类 别 剧情/动作/冒险/灾难

◎语 言 英语

◎上映日期 2006-09-28

◎IMDb评分 6.8/10 from 71,510 users

◎豆瓣评分 7.5/10 from 4,594 users

◎片 长 139 分钟

◎导 演 安德鲁·戴维斯 Andrew Davis

◎主 演 凯文·科斯特纳 Kevin Costner

阿什顿·库彻 Ashton Kutcher

尼尔·麦克唐纳 Neal McDonough

克兰西·布朗 Clancy Brown

惊涛大冒险剧情介绍:

  兰德尔(凯文?科斯特纳 Kevin Costner 饰)本事美国海岸警卫队的一名出色队员,然而,老猫烧须,一次他执行拯救任务时不仅任务完全失败,还搭进去了五名队友的性命。兰德尔从此一蹶不振。

  上司为了帮兰德尔重拾信心,将他派到了培训基地当任教官。在那里,兰德尔遇到了自信狂妄的学员游泳冠军费殊(艾什顿?库彻 Ashton Kutcher 饰)。费殊的自信活力给了兰德尔重新投入工作的信心。

  一次,费殊问兰德尔一共救过多少人,兰德尔告诉他22人;费殊一阵失落,随后问,"不是200个吗?"兰德尔斩钉截铁地回答,"我只记得我失去多人!"费殊彻底被兰德尔的勇气与坚毅所折服。两师徒惺惺相惜。

  之后,两人一起投入到了一次生死攸关的抢险中--

◎获奖情况

第12届中国电影华表奖 (2007)

优秀译制片奖

Video

ID : 1

Format : AVC

Format/Info : Advanced Video Codec

Format profile : [email protected]

Format settings, CABAC : Yes

Format settings, ReFrames : 5 frames

Codec ID : V_MPEG4/ISO/AVC

Duration : 2h 19mn

Bit rate : 10 000 Kbps

Width : 1 920 pixels

Height : 1 036 pixels

Display aspect ratio : 1.85:1

Frame rate mode : Constant

Frame rate : 23.976 fps

Color space : YUV

Chroma subsampling : 4:2:0

Bit depth : 8 bits

Scan type : Progressive

Bits/(Pixel*Frame) : 0.210

Stream size : 9.51 GiB (92%)

Writing library : x264 core 66 r1113M cc4f807

Encoding settings : cabac=1 / ref=5 / deblock=1:-2:-2 / analyse=0x3:0x113 / me=umh / subme=7 / psy_rd=1.0:1.0 / mixed_ref=1 / me_range=16 / chroma_me=0 / trellis=2 / 8x8dct=1 / cqm=0 / deadzone=21,11 / chroma_qp_offset=-4 / threads=6 / nr=0 / decimate=0 / mbaff=0 / bframes=4 / b_pyramid=1 / b_adapt=2 / b_bias=0 / direct=3 / wpredb=1 / keyint=250 / keyint_min=25 / scenecut=40(pre) / rc=2pass / bitrate=10000 / ratetol=1.0 / qcomp=0.60 / qpmin=10 / qpmax=51 / qpstep=4 / cplxblur=20.0 / qblur=0.5 / vbv_maxrate=50000 / vbv_bufsize=50000 / ip_ratio=1.40 / pb_ratio=1.30 / aq=1:1.00

Language : English

Default : Yes

Forced : No

Audio

ID : 2

Format : AC-3

Format/Info : Audio Coding 3

Mode extension : CM (complete main)

Format settings, Endianness : Big

Codec ID : A_AC3

Duration : 2h 19mn

Bit rate mode : Constant

Bit rate : 640 Kbps

Channel(s) : 6 channels

Channel positions : Front: L C R, Side: L R, LFE

Sampling rate : 48.0 KHz

Compression mode : Lossy

Delay relative to video : 50ms

Stream size : 637 MiB (6%)

Language : English

Default : Yes

Forced : No

《惊涛大冒险》剧照-1

  温馨提示:您正在浏览的"《惊涛大冒险》BT种子下载"的剧情介绍来自于[www.92np.com-就爱那片儿],如果您喜欢本站,请推荐给您的朋友,谢谢您的支持! 最后更新:2015年09月04日

惊涛大冒险电影下载:

提示:推荐使用BitComet、Utorrent、QQ旋风、迅雷下载惊涛大冒险。喜欢在线看的朋友可以把种子上传到百度网盘、115网盘,离线下载完手机电脑都可以在线看。

惊涛大冒险电影评论

更多精彩电影