当前位置:
首页 » 剧情片 » 咖啡店

咖啡店Coffee.Shop.2014.1080p.BluRay.x264.DTS-RARBG5.83GB

咖啡店 Coffee.Shop.2014.1080p.BluRay.x264.DTS-RARBG 5.83GB

演员:Laura Vandervoort Cory M. Grant Josh Ventura

导演: Dave Alan Johnson 地区: 美国集数: 0集年代: 2014时间: 0分钟豆瓣评分: 0.0

《咖啡店》海报

◎译 名 咖啡店

◎片 名 Coffee Shop

◎年 代 2014

◎国 家 美国

◎类 别 剧情/喜剧

◎语 言 英语

◎IMDb评分 6.3/10 from 185 users

◎导 演 Dave Alan Johnson

◎主 演 Laura Vandervoort9 ...�onavan

Cory M. Grant9 ...�en

Josh Ventura9 ...9Patrick

Jason Burkey9 ...9Kevin

Dave Alan Johnson9 ...9Mr. Conner

咖啡店剧情介绍:

When a young coffee shop owner is threatened with repossession she must take a chance with life and love as she fights to save her business.

Video

ID : 1

Format : AVC

Format/Info : Advanced Video Codec

Format profile : [email protected]

Format settings, CABAC : Yes

Format settings, ReFrames : 4 frames

Codec ID : V_MPEG4/ISO/AVC

Duration : 1h 28mn

Bit rate : 7 770 Kbps

Width : 1 920 pixels

Height : 1 080 pixels

Display aspect ratio : 16:9

Frame rate mode : Constant

Frame rate : 23.976 fps

Color space : YUV

Chroma subsampling : 4:2:0

Bit depth : 8 bits

Scan type : Progressive

Bits/(Pixel*Frame) : 0.156

Stream size : 4.79 GiB (82%)

Title : Coffee.Shop.2014.1080p.BluRay.x264.DTS-RARBG

Writing library : x264 core 148 r2597 e86f3a1

Encoding settings : cabac=1 / ref=4 / deblock=1:-3:-3 / analyse=0x3:0x113 / me=umh / subme=8 / psy=1 / psy_rd=1.00:0.15 / mixed_ref=1 / me_range=16 / chroma_me=1 / trellis=1 / 8x8dct=1 / cqm=0 / deadzone=21,11 / fast_pskip=0 / chroma_qp_offset=-3 / threads=6 / lookahead_threads=1 / sliced_threads=0 / nr=0 / decimate=1 / interlaced=0 / bluray_compat=0 / constrained_intra=0 / bframes=3 / b_pyramid=2 / b_adapt=2 / b_bias=0 / direct=3 / weightb=1 / open_gop=0 / weightp=2 / keyint=240 / keyint_min=24 / scenecut=40 / intra_refresh=0 / rc_lookahead=50 / rc=crf / mbtree=1 / crf=20.0 / qcomp=0.60 / qpmin=0 / qpmax=69 / qpstep=4 / ip_ratio=1.40 / aq=1:1.00

Language : English

Default : Yes

Forced : No

Audio

ID : 2

Format : DTS

Format/Info : Digital Theater Systems

Mode : 16

Format settings, Endianness : Big

Codec ID : A_DTS

Duration : 1h 28mn

Bit rate mode : Constant

Bit rate : 1 509 Kbps

Channel(s) : 6 channels

Channel positions : Front: L C R, Side: L R, LFE

Sampling rate : 48.0 KHz

Bit depth : 24 bits

Compression mode : Lossy

Stream size : 952 MiB (16%)

Title : Coffee.Shop.2014.1080p.BluRay.x264.DTS-RARBG

Language : English

Default : Yes

Forced : No

《咖啡店》剧照-1

  温馨提示:您正在浏览的"《咖啡店》BT种子下载"的剧情介绍来自于[www.92np.com-就爱那片儿],如果您喜欢本站,请推荐给您的朋友,谢谢您的支持! 最后更新:2015年09月07日

咖啡店电影下载:

提示:推荐使用BitComet、Utorrent、QQ旋风、迅雷下载咖啡店。喜欢在线看的朋友可以把种子上传到百度网盘、115网盘,离线下载完手机电脑都可以在线看。

咖啡店电影评论

更多精彩电影