当前位置:
首页 » 剧情片 » 后裔

后裔_继承大丈夫_继承人生_后人The.Descendants.2011.1080p.BluRay.x264.DTS-FGT12.85GB

演员:乔治·克鲁尼 谢琳·伍德蕾 马修·里沃德

导演: 亚历山大·佩恩 地区: 美国集数: 0集年代: 2011时间: 115分钟豆瓣评分: 7.5

《后裔》海报

  事业有成的律师马特(乔治·克鲁尼 George Clooney饰)的妻子因为一次意外变成了植物人。最近医生告诉他,妻子大限将至,令他倍受打击。同时,他作为夏威夷某岛的继承人还在与信托基金谈开发事宜。忙乱之中,两个女儿也不让马特省心:小女孩斯科蒂(阿玛拉·米勒 Amara Mil ler 饰)经常对同学爆粗口,马特只得带她亲自登门道歉;大女儿亚利桑德拉(谢琳·伍德蕾 Shailene Woodley 饰)住寄宿学校终日酗酒,母亲病重,马特希望亚利桑德拉摒弃对母亲的敌意,然而女儿却道出了母女决裂的原因--她发现了母亲出轨的事实。这彻底颠覆了妻子在马特心目中的印象。他跑去找妻子的闺蜜求证,答案竟然如出一辙。一直被蒙在鼓里的马特既失望又愤怒,开始带着女儿顺藤摸瓜,寻找第三者--

本片获第84届奥斯卡最佳改编剧本奖。

◎译 名 后裔/继承大丈夫(港)/继承人生(台)/后人

◎片 名 The Descendants

◎年 代 2011

◎国 家 美国

◎类 别 剧情/家庭

◎语 言 英语

◎上映日期 2011-11-16(美国)

◎IMDb评分 7.3/10 from 194,884 users

◎豆瓣评分 7.5/10 from 34,327 users

◎片 长 115分钟

◎导 演 亚历山大·佩恩 Alexander Payne

◎主 演 乔治·克鲁尼 George Clooney

谢琳·伍德蕾 Shailene Woodley

马修·里沃德 Matthew Lillard

◎获奖情况

第84届奥斯卡金像奖 (2012)

最佳影片(提名) 亚历山大·佩恩 / 吉姆·泰勒 / Jim Burke

最佳导演(提名) 亚历山大·佩恩

最佳男主角(提名) 乔治·克鲁尼

最佳改编剧本 亚历山大·佩恩 / 吉姆·拉什 / 奈特·法松

最佳剪辑(提名) 凯文·坦特

第69届金球奖 (2012)

电影类 最佳剧情片

电影类 剧情片最佳男主角 乔治·克鲁尼

电影类 最佳女配角(提名) 谢琳·伍德蕾

电影类 最佳导演(提名) 亚历山大·佩恩

电影类 最佳编剧(提名) 亚历山大·佩恩 / 吉姆·拉什 / 奈特·法松

第21届MTV电影奖 (2012)

MTV电影奖 突破表演奖 谢琳·伍德蕾

第77届纽约影评人协会奖 (2011)

最佳剧本(提名) 亚历山大·佩恩 / 吉姆·拉什 / 奈特·法松

第17届美国评论家选择电影奖 (2012)

最佳影片(提名)

最佳导演(提名) 亚历山大·佩恩

最佳男主角 乔治·克鲁尼

最佳女配角(提名) 谢琳·伍德蕾

最佳青年演员(提名) 谢琳·伍德蕾

最佳群像表演(提名)

  最佳改编剧本(提名) 亚历山大·佩恩 / 吉姆·拉什 / 奈特·法松

第27届独立精神奖 (2012)

最佳影片(提名) 亚历山大·佩恩 / 吉姆·泰勒 / Jim Burke

最佳导演(提名) 亚历山大·佩恩

最佳女配角 谢琳·伍德蕾

最佳剧本 亚历山大·佩恩 / 吉姆·拉什 / 奈特·法松

第10届华盛顿影评人协会奖 (2011)

最佳影片(提名)

最佳导演(提名) 亚历山大·佩恩

最佳男主角 乔治·克鲁尼

最佳女配角(提名) 谢琳·伍德蕾

最佳改编剧本 亚历山大·佩恩 / 吉姆·拉什 / 奈特·法松

第32届波士顿影评人协会奖 (2011)

最佳男主角(提名) 乔治·克鲁尼

最佳音乐(提名)

第16届圣地亚哥影评人协会奖 (2011)

最佳男主角(提名) 乔治·克鲁尼

最佳女配角 谢琳·伍德蕾

  最佳改编剧本(提名) 亚历山大·佩恩 / 吉姆·拉什 / 奈特·法松

第24届芝加哥影评人协会奖 (2011)

最佳影片(提名)

最佳导演(提名) 亚历山大·佩恩

最佳男主角(提名) 乔治·克鲁尼

最佳女配角(提名) 谢琳·伍德蕾

  最佳改编剧本(提名) 亚历山大·佩恩 / 吉姆·拉什 / 奈特·法松

最具潜力演员(提名) 谢琳·伍德蕾

第45届堪萨斯影评人协会奖 (2012)

最佳影片

最佳男主角 乔治·克鲁尼

第11届凤凰城影评人协会奖 (2011)

最佳导演(提名) 亚历山大·佩恩

最佳男主角(提名) 乔治·克鲁尼

最佳女配角(提名) 谢琳·伍德蕾

  最佳改编剧本(提名) 亚历山大·佩恩 / 吉姆·拉什 / 奈特·法松

最佳青年女演员(提名) Amara Miller

十佳影片

第20届东南影评人协会奖 (2011)

最佳影片

最佳男主角 乔治·克鲁尼

最佳女配角(提名) 谢琳·伍德蕾

最佳改编剧本 亚历山大·佩恩 / 吉姆·拉什 / 奈特·法松

最佳群像(提名)

十大佳片

第2届豆瓣电影鑫像奖 (2012)

鑫豆单元 最佳男演员(外语)(提名) 乔治·克鲁尼

Video

ID : 1

Format : AVC

Format/Info : Advanced Video Codec

Format profile : [email protected]

Format settings, CABAC : Yes

Format settings, ReFrames : 5 frames

Codec ID : V_MPEG4/ISO/AVC

Duration : 1h 55mn

Bit rate : 14.5 Mbps

Width : 1 920 pixels

Height : 800 pixels

Display aspect ratio : 2.40:1

Frame rate mode : Constant

Frame rate : 23.976 fps

Color space : YUV

Chroma subsampling : 4:2:0

Bit depth : 8 bits

Scan type : Progressive

Bits/(Pixel*Frame) : 0.394

Stream size : 11.4 GiB (89%)

Writing library : x264 core 120 r2164 da19765

Encoding settings : cabac=1 / ref=5 / deblock=1:-3:-3 / analyse=0x3:0x113 / me=umh / subme=11 / psy=1 / psy_rd=0.90:0.00 / mixed_ref=1 / me_range=64 / chroma_me=1 / trellis=2 / 8x8dct=1 / cqm=0 / deadzone=21,11 / fast_pskip=0 / chroma_qp_offset=-2 / threads=6 / sliced_threads=0 / nr=0 / decimate=0 / interlaced=0 / bluray_compat=0 / constrained_intra=0 / bframes=7 / b_pyramid=2 / b_adapt=2 / b_bias=0 / direct=3 / weightb=1 / open_gop=0 / weightp=2 / keyint=240 / keyint_min=23 / scenecut=40 / intra_refresh=0 / rc_lookahead=240 / rc=2pass / mbtree=1 / bitrate=14500 / ratetol=1.0 / qcomp=0.70 / qpmin=0 / qpmax=69 / qpstep=4 / cplxblur=20.0 / qblur=0.5 / vbv_maxrate=38000 / vbv_bufsize=30000 / nal_hrd=none / ip_ratio=1.40 / aq=1:0.80

Language : English

Default : Yes

Forced : No

Audio

ID : 2

Format : DTS

Format/Info : Digital Theater Systems

Mode : 16

Format settings, Endianness : Big

Codec ID : A_DTS

Duration : 1h 55mn

Bit rate mode : Constant

Bit rate : 1 509 Kbps

Channel(s) : 6 channels

Channel positions : Front: L C R, Side: L R, LFE

Sampling rate : 48.0 KHz

Bit depth : 24 bits

Compression mode : Lossy

Delay relative to video : 11ms

Stream size : 1.21 GiB (9%)

Language : English

Default : Yes

Forced : No

Text #1

ID : 3

Format : UTF-8

Codec ID : S_TEXT/UTF8

Codec ID/Info : UTF-8 Plain Text

Language : English

Default : No

Forced : No

Text #2

ID : 4

Format : UTF-8

Codec ID : S_TEXT/UTF8

Codec ID/Info : UTF-8 Plain Text

Title : SDH

Language : English

Default : No

Forced : No

Menu

00:00:00.000 : en:Chapter 01

00:03:18.990 : en:Chapter 02

00:06:58.668 : en:Chapter 03

00:09:09.174 : en:Chapter 04

00:10:27.877 : en:Chapter 05

00:14:22.862 : en:Chapter 06

00:18:03.374 : en:Chapter 07

00:22:42.444 : en:Chapter 08

00:26:00.517 : en:Chapter 09

00:29:37.859 : en:Chapter 10

00:34:20.975 : en:Chapter 11

00:36:06.206 : en:Chapter 12

00:40:00.148 : en:Chapter 13

00:44:42.680 : en:Chapter 14

00:47:07.741 : en:Chapter 15

00:49:18.414 : en:Chapter 16

00:51:45.769 : en:Chapter 17

00:53:39.132 : en:Chapter 18

01:00:01.097 : en:Chapter 19

01:07:46.646 : en:Chapter 20

01:12:47.196 : en:Chapter 21

01:18:39.631 : en:Chapter 22

01:22:30.320 : en:Chapter 23

01:25:40.301 : en:Chapter 24

01:26:38.610 : en:Chapter 25

01:28:32.682 : en:Chapter 26

01:31:41.829 : en:Chapter 27

01:34:30.373 : en:Chapter 28

01:38:17.349 : en:Chapter 29

01:43:14.938 : en:Chapter 30

01:45:42.627 : en:Chapter 31

01:48:03.643 : en:Chapter 32

《后裔》剧照-1

  温馨提示:您正在浏览的"《后裔》BT种子下载"的剧情介绍来自于[www.92np.com-就爱那片儿],如果您喜欢本站,请推荐给您的朋友,谢谢您的支持! 最后更新:2015年09月07日

后裔电影下载:

提示:由于该资源受到用户投诉或版权方要求,已经停止链接分享

后裔电影评论

更多精彩电影