当前位置:
首页 » 喜剧片 » 修补生活

修补生活The.Mend.2014.720p.WEB-DL.DD5.1.H264-RARBG3.4GB

演员:Josh Lucas Stephen Plunkett Lucy Owen

导演: John Magary 地区: 美国集数: 0集年代: 2014时间: 111分钟豆瓣评分: 0.0

《修补生活》海报

◎译 名 修补生活

◎片 名 The Mend

◎年 代 2014

◎国 家 美国

◎类 别 喜剧

◎语 言 英语

◎上映日期 2014-08-21

◎IMDb评分 6.2/10 from 101 users

◎片 长 111分钟

◎导 演 John Magary

◎主 演 Josh Lucas

Stephen Plunkett

Lucy Owen

修补生活剧情介绍:

A comic drama about rage, doubt, lust, madness, and other brotherly hand-me-downs.

Video

ID : 1

Format : AVC

Format/Info : Advanced Video Codec

Format profile : [email protected]

Format settings, CABAC : No

Format settings, ReFrames : 2 frames

Codec ID : V_MPEG4/ISO/AVC

Duration : 1h 49mn

Bit rate : 3 970 Kbps

Width : 1 280 pixels

Height : 532 pixels

Display aspect ratio : 2.40:1

Frame rate mode : Constant

Frame rate : 23.976 fps

Color space : YUV

Chroma subsampling : 4:2:0

Bit depth : 8 bits

Scan type : Progressive

Bits/(Pixel*Frame) : 0.243

Stream size : 3.04 GiB (89%)

Title : The.Mend.2014.720p.WEB-DL.DD5.1.H264-RARBG

Language : English

Default : Yes

Forced : No

Color range : Limited

Color primaries : BT.709

Transfer characteristics : BT.709

Matrix coefficients : BT.709

Audio

ID : 2

Format : AC-3

Format/Info : Audio Coding 3

Mode extension : CM (complete main)

Format settings, Endianness : Big

Codec ID : A_AC3

Duration : 1h 49mn

Bit rate mode : Constant

Bit rate : 384 Kbps

Channel(s) : 6 channels

Channel positions : Front: L C R, Side: L R, LFE

Sampling rate : 48.0 KHz

Compression mode : Lossy

Stream size : 301 MiB (9%)

Title : The.Mend.2014.720p.WEB-DL.DD5.1.H264-RARBG

Language : English

Default : Yes

Forced : No

Text

ID : 3

Format : UTF-8

Codec ID : S_TEXT/UTF8

Codec ID/Info : UTF-8 Plain Text

Language : English

Default : No

Forced :

o《修补生活》剧照-1

  温馨提示:您正在浏览的"《修补生活》BT种子下载"的剧情介绍来自于[www.92np.com-就爱那片儿],如果您喜欢本站,请推荐给您的朋友,谢谢您的支持! 最后更新:2015年09月08日

修补生活电影下载:

提示:推荐使用BitComet、Utorrent、QQ旋风、迅雷下载修补生活。喜欢在线看的朋友可以把种子上传到百度网盘、115网盘,离线下载完手机电脑都可以在线看。

修补生活电影评论

更多精彩电影