当前位置:
首页 » 惊悚片 » 亵渎

亵渎Desecrated.2015.720p.WEB-DL.AC3(中英字幕无水印)

演员:海莉·达芙 冈萨洛·门内德斯 迈克尔·艾恩塞德

导演: Rob Garcia 地区: 美国集数: 0集年代: 2012时间: 106分钟豆瓣评分: 0.0

《亵渎》海报

◎译 名 亵渎

◎片 名 Desecrated

◎年 代 2015

◎国 家 美国

◎类 别 惊悚

◎语 言 英语

◎上映日期 2012-01-06(美国)

◎IMDb评分 3.3/10 from 279 users

◎片 长 106分钟

◎导 演 Rob Garcia

◎主 演 海莉·达芙 Haylie Duff

冈萨洛·门内德斯 Gonzalo Menendez

迈克尔·艾恩塞德 Michael Ironside

亵渎剧情介绍:

Rich heiress Allie McClean heads for a weekend at her isolated family home in the middle of no man's land, only to find that the caretaker, Ben, is a homicidal maniac who's under instructions from her father to kill her and all her guests.

Video

ID : 0

Format : MPEG-4 Visual

Format profile : [email protected]

Format settings, BVOP : No

Format settings, QPel : No

Format settings, GMC : No warppoints

Format settings, Matrix : Default (H.263)

Codec ID : XVID

Codec ID/Hint : XviD

Duration : 1h 22mn

Bit rate : 3 217 Kbps

Width : 1 280 pixels

Height : 720 pixels

Display aspect ratio : 16:9

Frame rate : 25.000 fps

Color space : YUV

Chroma subsampling : 4:2:0

Bit depth : 8 bits

Scan type : Progressive

Compression mode : Lossy

Bits/(Pixel*Frame) : 0.140

Stream size : 1.85 GiB (89%)

Writing library : Lavc56.13.100

Audio

ID : 1

Format : AC-3

Format/Info : Audio Coding 3

Mode extension : CM (complete main)

Format settings, Endianness : Big

Codec ID : 2000

Duration : 1h 22mn

Bit rate mode : Constant

Bit rate : 384 Kbps

Channel(s) : 6 channels

Channel positions : Front: L C R, Side: L R, LFE

Sampling rate : 48.0 KHz

Compression mode : Lossy

Stream size : 226 MiB (11%)

Alignment : Aligned on interleaves

Interleave, duration : 40 ms (1.00 video frame)

Interleave, preload duration : 512 ms

《亵渎》剧照-1

  温馨提示:您正在浏览的"《亵渎》BT种子下载"的剧情介绍来自于[www.92np.com-就爱那片儿],如果您喜欢本站,请推荐给您的朋友,谢谢您的支持! 最后更新:2015年09月15日

亵渎电影下载:

提示:推荐使用BitComet、Utorrent、QQ旋风、迅雷下载亵渎。喜欢在线看的朋友可以把种子上传到百度网盘、115网盘,离线下载完手机电脑都可以在线看。

亵渎电影评论

更多精彩电影