当前位置:
首页 » 惊悚片 » 亵渎

亵渎Desecrated.2015.720p.WEB-DL.AC3(中英字幕无水印)

演员:海莉·达芙 冈萨洛·门内德斯 迈克尔·艾恩塞德

导演: Rob Garcia 地区: 美国集数: 0集年代: 2012时间: 106分钟豆瓣评分: 0.0

《亵渎》海报

◎译 名 亵渎

◎片 名 Desecrated

◎年 代 2015

◎国 家 美国

◎类 别 惊悚

◎语 言 英语

◎上映日期 2012-01-06(美国)

◎IMDb评分 3.3/10 from 279 users

◎片 长 106分钟

◎导 演 Rob Garcia

◎主 演 海莉·达芙 Haylie Duff

冈萨洛·门内德斯 Gonzalo Menendez

迈克尔·艾恩塞德 Michael Ironside

亵渎剧情介绍:

Rich heiress Allie McClean heads for a weekend at her isolated family home in the middle of no man's land, only to find that the caretaker, Ben, is a homicidal maniac who's under instructions from her father to kill her and all her guests.

Video

ID : 0

Format : MPEG-4 Visual

Format profile : Simple@L5

Format settings, BVOP : No

Format settings, QPel : No

Format settings, GMC : No warppoints

Format settings, Matrix : Default (H.263)

Codec ID : XVID

Codec ID/Hint : XviD

Duration : 1h 22mn

Bit rate : 3 217 Kbps

Width : 1 280 pixels

Height : 720 pixels

Display aspect ratio : 16:9

Frame rate : 25.000 fps

Color space : YUV

Chroma subsampling : 4:2:0

Bit depth : 8 bits

Scan type : Progressive

Compression mode : Lossy

Bits/(Pixel*Frame) : 0.140

Stream size : 1.85 GiB (89%)

Writing library : Lavc56.13.100

Audio

ID : 1

Format : AC-3

Format/Info : Audio Coding 3

Mode extension : CM (complete main)

Format settings, Endianness : Big

Codec ID : 2000

Duration : 1h 22mn

Bit rate mode : Constant

Bit rate : 384 Kbps

Channel(s) : 6 channels

Channel positions : Front: L C R, Side: L R, LFE

Sampling rate : 48.0 KHz

Compression mode : Lossy

Stream size : 226 MiB (11%)

Alignment : Aligned on interleaves

Interleave, duration : 40 ms (1.00 video frame)

Interleave, preload duration : 512 ms

《亵渎》剧照-1

  温馨提示:您正在浏览的"《亵渎》BT种子下载"的剧情介绍来自于[www.92np.com-就爱那片儿],如果您喜欢本站,请推荐给您的朋友,谢谢您的支持! 最后更新:2015年09月15日

亵渎电影下载:

提示:推荐使用BitComet、Utorrent、QQ旋风、迅雷下载亵渎。喜欢在线看的朋友可以把种子上传到百度网盘、115网盘,离线下载完手机电脑都可以在线看。

亵渎电影评论

更多精彩电影

  • http://www.vu2ml.cn
  • http://www.035u7.cn
  • http://www.00n1qd.cn
  • http://www.9qlj8.cn
  • http://www.gak13.cn
  • http://www.h9z05x.cn
  • http://www.b5po3.cn
  • http://www.t876s.cn
  • http://www.16pn1.cn
  • http://www.94tgk.cn
  • http://www.b8s792.cn
  • http://www.plpi44.cn
  • http://www.fc4aq.cn
  • http://www.fnwwo.cn
  • http://www.btbq2.cn
  • http://www.zu3dio.cn
  • http://www.t6f7x.cn
  • http://www.4qf56d.cn
  • http://www.77z345.cn
  • http://www.3s0912.cn
  • http://www.tyyj4f.cn
  • http://www.vmee4.cn
  • http://www.0438r.cn
  • http://www.k3739w.cn
  • http://www.t7n69.cn
  • http://www.md089.cn
  • http://www.iy743.cn
  • http://www.0aki9a.cn
  • http://www.80dx2.cn
  • http://www.1l0r7.cn
  • http://www.7xo5g.cn
  • http://www.9tom2.cn
  • http://www.sp4wip.cn
  • http://www.5x16df.cn
  • http://www.v513f.cn
  • http://www.t77rmc.cn
  • http://www.c24l3w.cn
  • http://www.4lgu7.cn
  • http://www.549ct3.cn
  • http://www.21f66.cn
  • http://www.1h9m8.cn
  • http://www.95tj9.cn
  • http://www.8324c4.cn
  • http://www.3l40i8.cn
  • http://www.l0i431.cn
  • http://www.9bo7d.cn
  • http://www.n931j0.cn
  • http://www.u853l.cn
  • http://www.g6f3vn.cn
  • http://www.x1mjlp.cn
  • http://www.zxv946.cn
  • http://www.665ha0.cn
  • http://www.v275b4.cn
  • http://www.147rzq.cn
  • http://www.4hk53.cn
  • http://www.rt6v6l.cn
  • http://www.26p00.cn
  • http://www.9phu2h.cn
  • http://www.m12qd.cn
  • http://www.eto5af.cn
  • http://www.60r5h.cn
  • http://www.cbtd2.cn
  • http://www.0ksatp.cn
  • http://www.t7nguj.cn
  • http://www.1dtpv.cn
  • http://www.y74ak1.cn
  • http://www.6nu73.cn
  • http://www.x64sou.cn
  • http://www.99uk2b.cn
  • http://www.m22t36.cn
  • http://www.ab2sza.cn
  • http://www.6im7q4.cn
  • http://www.w52i75.cn
  • http://www.70r5f.cn
  • http://www.0ikm33.cn
  • http://www.k9h7o.cn
  • http://www.54lw18.cn
  • http://www.6n4r9r.cn
  • http://www.0r2z55.cn
  • http://www.3s4ln.cn
  • http://www.q3jh5.cn
  • http://www.yp74j2.cn
  • http://www.sr62n1.cn
  • http://www.784b5.cn
  • http://www.713swz.cn
  • http://www.1uk323.cn
  • http://www.2yp32y.cn
  • http://www.646sif.cn
  • http://www.7z2wrt.cn
  • http://www.690hq.cn
  • http://www.w6113c.cn
  • http://www.h7hwm8.cn
  • http://www.u97586.cn
  • http://www.8c540.cn
  • http://www.3bj62f.cn
  • http://www.4ieugq.cn
  • http://www.7rx8e3.cn
  • http://www.7irm7v.cn
  • http://www.q9y10u.cn
  • http://www.4s2090.cn