当前位置:
首页 » 动作片 » 弗吉尼亚人

弗吉尼亚人The.Virginian.2014.720p.WEB-DL.DD5.1.H264-FGT2.84GB

弗吉尼亚人 The.Virginian.2014.720p.WEB-DL.DD5.1.H264-FGT 2.84GB

《弗吉尼亚人》海报

演员:Victoria Pratt Michael Adamthwaite Trace Adkins

导演: Thomas Makowski 地区: 加拿大集数: 0集年代: 2014时间: 0分钟豆瓣评分: 0.0

《弗吉尼亚人》剧照-1

◎译 名 弗吉尼亚人

◎片 名 The Virginian

◎年 代 2014

◎国 家 加拿大

◎类 别 西部

◎IMDb评分 4.6/10 from 179 users

◎片 长 95 min

◎导 演 Thomas Makowski

◎主 演 Victoria Pratt9 ...9Molly West

Michael Adamthwaite9 ...�ather

Trace Adkins9 ...9The Virginian / South

弗吉尼亚人剧情介绍:

Trace Adkins (The Lincoln Lawyer)| Ron Perlman (TV's "Sons of Anarchy") and Brendan Penny (Ring Of Fire) star in this gritty and riveting re-imagining of the classic

Western saga. Raised by powerful cattle baron Judge Henry (Perlman)| South| aka "The Virginian" (Adkins)| lives his life as a ranch enforcer with bravery and steely

determination. When a big-city writer (Penny) raises questions about the fierce treatment of rustlers| South is quick to defend the brutal realities of the "Code of

the West." But as he looks deeper into the latest string of rustling and finds his convictions questioned by a pretty new schoolteacher (Victoria Pratt| Mutant X)|

South begins to wonder if the Judge had ulterior motives in raising him to a life of bloodshed and violence in this explosive| action-loaded epic on the open range.

Video

ID : 1

Format : AVC

Format/Info : Advanced Video Codec

Format profile : [email protected]

Format settings, CABAC : No

Format settings, ReFrames : 2 frames

Codec ID : V_MPEG4/ISO/AVC

Duration : 1h 34mn

Bit rate : 3 839 Kbps

Width : 1 280 pixels

Height : 540 pixels

Display aspect ratio : 2.40:1

Frame rate mode : Constant

Frame rate : 23.976 fps

Color space : YUV

Chroma subsampling : 4:2:0

Bit depth : 8 bits

Scan type : Progressive

Bits/(Pixel*Frame) : 0.232

Stream size : 2.53 GiB (89%)

Title : The.Virginian.2014.720p.WEB-DL.DD5.1.H264-FGT

Language : English

Default : Yes

Forced : No

Color range : Limited

Color primaries : BT.709

Transfer characteristics : BT.709

Matrix coefficients : BT.709

Audio

ID : 2

Format : AC-3

Format/Info : Audio Coding 3

Mode extension : CM (complete main)

Format settings, Endianness : Big

Codec ID : A_AC3

Duration : 1h 34mn

Bit rate mode : Constant

Bit rate : 384 Kbps

Channel(s) : 6 channels

Channel positions : Front: L C R, Side: L R, LFE

Sampling rate : 48.0 KHz

Compression mode : Lossy

Stream size : 259 MiB (9%)

Title : The.Virginian.2014.720p.WEB-DL.DD5.1.H264-FGT

Language : English

Default : Yes

Forced : No

《弗吉尼亚人》剧照-2

  温馨提示:您正在浏览的"《弗吉尼亚人》BT种子下载"的剧情介绍来自于[www.92np.com-就爱那片儿],如果您喜欢本站,请推荐给您的朋友,谢谢您的支持! 最后更新:2015年09月16日

弗吉尼亚人电影下载:

提示:推荐使用BitComet、Utorrent、QQ旋风、迅雷下载弗吉尼亚人。喜欢在线看的朋友可以把种子上传到百度网盘、115网盘,离线下载完手机电脑都可以在线看。

弗吉尼亚人电影评论

更多精彩电影