当前位置:
首页 » 动作片 » 船长剑齿

船长剑齿_宝藏争夺战2014.DUBBED.720p.BluRay.x264.DTS-RARBG4.63GB

船长剑齿_宝藏争夺战 2014.DUBBED.720p.BluRay.x264.DTS-RARBG 4.63GB

演员:Tuva Novotny Fridtjov S?heim

导演: John Andreas Andersen Lisa Marie Gamlem Gail BeanAnders Baasmo Christiansen 地区: 挪威 Norway集数: 0集年代: 2014时间: 96分钟豆瓣评分: 0.0

《船长剑齿》海报

◎译 名 船长剑齿/宝藏争夺战

◎片 名 Captain.Sabertooth.and.the.Treasure.of.Lama.Rama

◎年 代 2014

◎国 家 挪威

◎类 别 动作/冒险/喜剧/剧情

◎语 言 英语

◎IMDb评分 5.7/10 from 220 users

◎片 长 96 min

◎导 演 John Andreas Andersen, Lisa Marie Gamlem

◎主 演 Tuva Novotny ...Frida

Fridtjov S?heim ...Bj?rn Barsk

Gail BeanAnders Baasmo Christiansen ...King Rufus

Jon ?igarden ...Prince Badal

Nils J?rgen Kaalstad ...Konrad

船长剑齿剧情介绍:

The orphan boy Pinky follows the Captain on an exciting and dangerous journey across the big oceans to the kingdom of Lama Rama| hunting for a treasure and the

answer to who is Pinky's father.

Video

ID : 1

Format : AVC

Format/Info : Advanced Video Codec

Format profile : [email protected]

Format settings, CABAC : Yes

Format settings, ReFrames : 4 frames

Codec ID : V_MPEG4/ISO/AVC

Duration : 1h 36mn

Bit rate : 5 217 Kbps

Nominal bit rate : 5 500 Kbps

Width : 1 280 pixels

Height : 534 pixels

Display aspect ratio : 2.40:1

Original display aspect ratio : 2.40:1

Frame rate mode : Constant

Frame rate : 24.000 fps

Color space : YUV

Chroma subsampling : 4:2:0

Bit depth : 8 bits

Scan type : Progressive

Bits/(Pixel*Frame) : 0.318

Stream size : 3.52 GiB (76%)

Title : Captain.Sabertooth.and.the.Treasure.of.Lama.Rama.2014.DUBBED.720p.BluRay.x264.DTS-RARBG

Writing library : x264 core 146 r2555 0c21480

Encoding settings : cabac=1 / ref=4 / deblock=1:-2:-2 / analyse=0x3:0x113 / me=umh / subme=7 / psy=1 / psy_rd=1.00:0.15 / mixed_ref=1 / me_range=16 / chroma_me=1 / trellis=1 / 8x8dct=1 / cqm=0 / deadzone=21,11 / fast_pskip=1 / chroma_qp_offset=-3 / threads=12 / lookahead_threads=3 / sliced_threads=0 / nr=0 / decimate=1 / interlaced=0 / bluray_compat=0 / constrained_intra=0 / bframes=3 / b_pyramid=2 / b_adapt=2 / b_bias=0 / direct=3 / weightb=1 / open_gop=0 / weightp=2 / keyint=250 / keyint_min=25 / scenecut=40 / intra_refresh=0 / rc_lookahead=50 / rc=abr / mbtree=1 / bitrate=5500 / ratetol=1.0 / qcomp=0.60 / qpmin=0 / qpmax=69 / qpstep=4 / vbv_maxrate=31250 / vbv_bufsize=31250 / nal_hrd=none / filler=0 / ip_ratio=1.40 / aq=1:1.00

Language : English

Default : Yes

Forced : No

Audio

ID : 2

Format : DTS

Format/Info : Digital Theater Systems

Mode : 16

Format settings, Endianness : Big

Codec ID : A_DTS

Duration : 1h 36mn

Bit rate mode : Constant

Bit rate : 1 509 Kbps

Channel(s) : 6 channels

Channel positions : Front: L C R, Side: L R, LFE

Sampling rate : 48.0 KHz

Bit depth : 16 bits

Compression mode : Lossy

Stream size : 1.02 GiB (22%)

Title : Captain.Sabertooth.and.the.Treasure.of.Lama.Rama.2014.DUBBED.720p.BluRay.x264.DTS-RARBG

Language : English

Default : Yes

Forced : No

Text

ID : 3

Format : UTF-8

Codec ID : S_TEXT/UTF8

Codec ID/Info : UTF-8 Plain Text

Language : English

Default : Yes

Forced : No

Menu

00:00:00.000 : en:Chapter 01

00:12:09.833 : en:Chapter 02

00:23:38.875 : en:Chapter 03

00:36:29.500 : en:Chapter 04

00:48:34.333 : en:Chapter 05

01:00:17.500 : en:Chapter 06

01:12:35.041 : en:Chapter 07

01:24:30.708 : en:Chapter 08

01:36:37.583 : en:Chapter 09

01:36:38.625 : en:Chapter 10

《船长剑齿》剧照-1

  温馨提示:您正在浏览的"《船长剑齿》BT种子下载"的剧情介绍来自于[www.92np.com-就爱那片儿],如果您喜欢本站,请推荐给您的朋友,谢谢您的支持! 最后更新:2015年09月16日

船长剑齿电影下载:

提示:推荐使用BitComet、Utorrent、QQ旋风、迅雷下载船长剑齿。喜欢在线看的朋友可以把种子上传到百度网盘、115网盘,离线下载完手机电脑都可以在线看。

船长剑齿电影评论

更多精彩电影