当前位置:
首页 » 剧情片 » 掘火者

掘火者Digging.for.Fire.2015.720p.WEB-DL.DD5.1.H264(中英字幕无水印)

掘火者 Digging.for.Fire.2015.720p.WEB-DL.DD5.1.H264(中英字幕无水印)

演员:安娜·肯德里克 奥兰多·布鲁姆 布丽·拉尔森 Jake Johnson 山姆·洛克威尔 山姆·艾里奥特 克里斯·梅西纳 珍妮·斯蕾特

导演: Joe Swanberg 地区: 美国集数: 0集年代: 2015时间: 85分钟豆瓣评分: 0.0

◎译 名 掘火者

◎片 名 Digging for Fire

◎年 代 2015

◎国 家 美国

◎类 别 剧情

◎语 言 英语

◎上映日期 2015-08-21(美国)

◎IMDb评分 6.1/10 from 257 users

◎片 长 85分钟

◎导 演 Joe Swanberg

◎主 演 安娜·肯德里克 Anna Kendrick

奥兰多·布鲁姆 Orlando Bloom

布丽·拉尔森 Brie Larson

Jake Johnson

山姆·洛克威尔 Sam Rockwell

山姆·艾里奥特 Sam Elliott

克里斯·梅西纳 Chris Messina

珍妮·斯蕾特 Jenny Slate

掘火者剧情介绍:

It's a love story about a husband and wife, played by Jake Johnson and Rosemarie DeWitt. It's about the pleasures and pains of building a family with someone, and maintaining the excitement of a relationship over a long period of time.

Video

ID : 1

Format : AVC

Format/Info : Advanced Video Codec

Format profile : [email protected]

Format settings, CABAC : No

Format settings, ReFrames : 2 frames

Codec ID : V_MPEG4/ISO/AVC

Duration : 1h 23mn

Bit rate : 3 932 Kbps

Width : 1 280 pixels

Height : 544 pixels

Display aspect ratio : 2.35:1

Frame rate mode : Constant

Frame rate : 23.976 fps

Color space : YUV

Chroma subsampling : 4:2:0

Bit depth : 8 bits

Scan type : Progressive

Bits/(Pixel*Frame) : 0.236

Stream size : 2.29 GiB (89%)

Title : Digging.for.Fire.2015.720p.WEB-DL.DD5.1.H264-RARBG

Language : English

Default : Yes

Forced : No

Color range : Limited

Color primaries : BT.709

Transfer characteristics : BT.709

Matrix coefficients : BT.709

Audio

ID : 2

Format : AC-3

Format/Info : Audio Coding 3

Mode extension : CM (complete main)

Format settings, Endianness : Big

Codec ID : A_AC3

Duration : 1h 23mn

Bit rate mode : Constant

Bit rate : 384 Kbps

Channel(s) : 6 channels

Channel positions : Front: L C R, Side: L R, LFE

Sampling rate : 48.0 KHz

Compression mode : Lossy

Stream size : 229 MiB (9%)

Title : Digging.for.Fire.2015.720p.WEB-DL.DD5.1.H264-RARBG

Language : English

Default : Yes

Forced : No

Text

ID : 3

Format : UTF-8

Codec ID : S_TEXT/UTF8

Codec ID/Info : UTF-8 Plain Text

Language : English

Default : No

Forced : No

Menu

00:00:00.000 : en:Bone and Gun

00:13:40.000 : en:Be a Man

00:32:50.000 : en:Crossroads

00:43:32.000 : en:A Night Out

00:57:43.000 : en:Stitches

01:07:17.000 : en:Earth and Sky

01:15:10.000 : enassionate Marriage

《掘火者》海报

《掘火者》剧照-1

《掘火者》剧照-2

  温馨提示:您正在浏览的"《掘火者》BT种子下载"的剧情介绍来自于[www.92np.com-就爱那片儿],如果您喜欢本站,请推荐给您的朋友,谢谢您的支持! 最后更新:2015年09月17日

掘火者电影下载:

提示:由于该资源受到用户投诉或版权方要求,已经停止链接分享

掘火者电影评论

更多精彩电影