当前位置:
首页 » 惊悚片 » 猛鬼家访

猛鬼家访The.Visitant.2014.1080p.BluRay.x264.DTS-RARBG8.03GB

猛鬼家访 The.Visitant.2014.1080p.BluRay.x264.DTS-RARBG 8.03GB

演员:Michele Simms Patty Bender Stephen DeWoody

导演: Jon Binkowski 地区: 美国集数: 0集年代: 2012时间: 0分钟豆瓣评分: 0.0

《猛鬼家访》海报

◎译 名 猛鬼家访

◎片 名 The.Visitant

◎年 代 2014

◎国 家 美国

◎类 别 恐怖

◎语 言 英语

◎IMDb评分 4.2/10 from 176 users

◎片 长 90 min

◎导 演 Jon Binkowski

◎主 演 Michele Simms9 ...9Samantha (as Michele Feren)

Patty Bender9 ...9Gardening Show Hostess

Stephen DeWoody9 ...�r. O'Sullivan

Chris Dinger9 ...9Joe

Ana Eligio9 ...�eth

Sallie Glaner9 ...9Lee

猛鬼家访剧情介绍:

vis-i-tant; n: A VISITOR| esp. one from the spirit world... Samantha plays the role of "Fortune Teller|" but she is a thorough skeptic about "paranormal activities"

and all things supernatural - she certainly doesn't believe in ghosts. But one night alone in her house| she is about to learn that there are dark forces that don't

care whether she believes or not; they are REAL. Or are they?...

Video

ID : 1

Format : AVC

Format/Info : Advanced Video Codec

Format profile : [email protected]

Format settings, CABAC : Yes

Format settings, ReFrames : 4 frames

Codec ID : V_MPEG4/ISO/AVC

Duration : 1h 30mn

Bit rate : 5 226 Kbps

Nominal bit rate : 5 500 Kbps

Width : 1 280 pixels

Height : 720 pixels

Display aspect ratio : 2.40:1

Frame rate mode : Constant

Frame rate : 23.976 fps

Color space : YUV

Chroma subsampling : 4:2:0

Bit depth : 8 bits

Scan type : Progressive

Bits/(Pixel*Frame) : 0.237

Stream size : 3.31 GiB (76%)

Title : The.Visitant.2014.720p.BluRay.x264.DTS-RARBG

Writing library : x264 core 146 r2555 0c21480

Encoding settings : cabac=1 / ref=4 / deblock=1:-2:-2 / analyse=0x3:0x113 / me=umh / subme=7 / psy=1 / psy_rd=1.00:0.15 / mixed_ref=1 / me_range=16 / chroma_me=1 / trellis=1 / 8x8dct=1 / cqm=0 / deadzone=21,11 / fast_pskip=1 / chroma_qp_offset=-3 / threads=12 / lookahead_threads=3 / sliced_threads=0 / nr=0 / decimate=1 / interlaced=0 / bluray_compat=0 / constrained_intra=0 / bframes=3 / b_pyramid=2 / b_adapt=2 / b_bias=0 / direct=3 / weightb=1 / open_gop=0 / weightp=2 / keyint=250 / keyint_min=25 / scenecut=40 / intra_refresh=0 / rc_lookahead=50 / rc=abr / mbtree=1 / bitrate=5500 / ratetol=1.0 / qcomp=0.60 / qpmin=0 / qpmax=69 / qpstep=4 / vbv_maxrate=31250 / vbv_bufsize=31250 / nal_hrd=none / filler=0 / ip_ratio=1.40 / aq=1:1.00

Language : English

Default : Yes

Forced : No

Audio

ID : 2

Format : DTS

Format/Info : Digital Theater Systems

Mode : 16

Format settings, Endianness : Big

Codec ID : A_DTS

Duration : 1h 30mn

Bit rate mode : Constant

Bit rate : 1 509 Kbps

Channel(s) : 2 channels

Channel positions : Front: L R

Sampling rate : 48.0 KHz

Bit depth : 16 bits

Compression mode : Lossy

Stream size : 979 MiB (22%)

Title : The.Visitant.2014.720p.BluRay.x264.DTS-RARBG

Language : English

Default : Yes

Forced : No

Menu

00:00:00.000 : en:Chapter 01

00:07:25.361 : en:Chapter 02

00:16:15.474 : en:Chapter 03

00:23:48.760 : en:Chapter 04

00:32:46.756 : en:Chapter 05

00:40:20.292 : en:Chapter 06

00:48:18.395 : en:Chapter 07

00:56:06.488 : en:Chapter 08

01:03:59.961 : en:Chapter 09

01:11:38.836 : en:Chapter 10

01:18:39.840 : en:Chapter 11

01:27:42.507 : en:Chapter 12

《猛鬼家访》剧照-1

  温馨提示:您正在浏览的"《猛鬼家访》BT种子下载"的剧情介绍来自于[www.92np.com-就爱那片儿],如果您喜欢本站,请推荐给您的朋友,谢谢您的支持! 最后更新:2015年09月17日

猛鬼家访电影下载:

提示:由于该资源受到用户投诉或版权方要求,已经停止链接分享

猛鬼家访电影评论

更多精彩电影