当前位置:
首页 » 动作片 » 埃塞克斯男孩:生存的法则

埃塞克斯男孩_生存的法则Essex.Boys.Law.Of.Survival.2015.LIMITED.1080p.BluRay.X264-GHOULS6.

埃塞克斯男孩_生存的法则 Essex.Boys.Law.Of.Survival.2015.LIMITED.1080p.BluRay.X264-GHOULS 6.

《埃塞克斯男孩:生存的法则》海报

演员:Jesse Birdsall Chris Bell Ross Boatman Megan Lockhurst Mark Sears

导演: Steven M. Smith 地区: 英国集数: 集年代: 2015时间: 0分钟豆瓣评分: 0.0

《埃塞克斯男孩:生存的法则》剧照-1

◎译 名 埃塞克斯男孩:生存的法则

◎片 名 Essex Boys: Law of Survival

◎年 代 2015

◎国 家 英国

◎类 别 犯罪/动作/剧情

◎语 言 英语

◎字 幕 N/A

◎IMDB评分 (voting begins after release)

◎片 长 01:27:45

◎导 演 Steven M. Smith

◎主 演 Jesse Birdsall ...Hemp

Chris Bell ...Danny

Ross Boatman ...Franks

Megan Lockhurst ...Judy

Mark Sears ...Sean Jones

Abbie Steele ...Amy

James Hodcroft ...Lee

Jake Francis ...Detective Allen

Darren James King ...Harvey

Owen Clark ...Gerard (The Yank)

Dean Martin ..DCI Gregg

埃塞克斯男孩:生存的法则剧情介绍:

Danny an ex street thug takes on the Essex Underworld after they turn his life upside down.

Video

ID : 1

Format : AVC

Format/Info : Advanced Video Codec

Format profile : [email protected]

Format settings, CABAC : Yes

Format settings, ReFrames : 4 frames

Codec ID : V_MPEG4/ISO/AVC

Duration : 1h 31mn

Bit rate : 8 769 Kbps

Width : 1 920 pixels

Height : 1 080 pixels

Display aspect ratio : 16:9

Frame rate mode : Constant

Frame rate : 24.000 fps

Color space : YUV

Chroma subsampling : 4:2:0

Bit depth : 8 bits

Scan type : Progressive

Bits/(Pixel*Frame) : 0.176

Stream size : 5.46 GiB (83%)

Writing library : x264 core 148 r2597 e86f3a1

Encoding settings : cabac=1 / ref=4 / deblock=1:-1:-1 / analyse=0x3:0x133 / me=umh / subme=7 / psy=1 / psy_rd=1.00:0.00 / mixed_ref=1 / me_range=16 / chroma_me=1 / trellis=1 / 8x8dct=1 / cqm=0 / deadzone=21,11 / fast_pskip=0 / chroma_qp_offset=-2 / threads=6 / lookahead_threads=1 / sliced_threads=0 / nr=0 / decimate=1 / interlaced=0 / bluray_compat=0 / constrained_intra=0 / bframes=3 / b_pyramid=2 / b_adapt=2 / b_bias=0 / direct=3 / weightb=1 / open_gop=0 / weightp=2 / keyint=240 / keyint_min=24 / scenecut=40 / intra_refresh=0 / rc_lookahead=50 / rc=2pass / mbtree=1 / bitrate=8769 / ratetol=1.0 / qcomp=0.60 / qpmin=10 / qpmax=51 / qpstep=4 / cplxblur=20.0 / qblur=0.5 / vbv_maxrate=62500 / vbv_bufsize=78125 / nal_hrd=none / filler=0 / ip_ratio=1.40 / aq=1:1.00

Default : Yes

Forced : No

Audio

ID : 2

Format : DTS

Format/Info : Digital Theater Systems

Mode : 16

Format settings, Endianness : Big

Codec ID : A_DTS

Duration : 1h 31mn

Bit rate mode : Constant

Bit rate : 1 509 Kbps

Channel(s) : 6 channels

Channel positions : Front: L C R, Side: L R, LFE

Sampling rate : 48.0 KHz

Bit depth : 24 bits

Compression mode : Lossy

Stream size : 986 MiB (15%)

Language : English

Default : Yes

Forced : No

Menu

00:00:00.000 : en:00:00:00.000

00:05:13.625 : en:00:05:13.625

00:12:55.583 : en:00:12:55.583

00:23:49.167 : en:00:23:49.167

00:33:19.958 : en:00:33:19.958

00:43:16.708 : en:00:43:16.708

00:50:21.625 : en:00:50:21.625

00:58:00.958 : en:00:58:00.958

01:09:32.583 : en:01:09:32.583

01:18:30.708 : en:01:18:30.708

01:25:50.208 : en:01:25:50.208

01:27:55.208 : en:01:27:55.208

  温馨提示:您正在浏览的"《埃塞克斯男孩:生存的法则》BT种子下载"的剧情介绍来自于[www.92np.com-就爱那片儿],如果您喜欢本站,请推荐给您的朋友,谢谢您的支持! 最后更新:2015年09月17日

埃塞克斯男孩:生存的法则电影下载:

提示:推荐使用BitComet、Utorrent、QQ旋风、迅雷下载埃塞克斯男孩:生存的法则。喜欢在线看的朋友可以把种子上传到百度网盘、115网盘,离线下载完手机电脑都可以在线看。

埃塞克斯男孩:生存的法则电影评论

更多精彩电影