当前位置:
首页 » 动作片 » 连环劫

连环劫_回马枪Chain.of.Command.2015.1080p.BluRay.x264.DTS-RARBG

连环劫_回马枪 Chain.of.Command.2015.1080p.BluRay.x264.DTS-RARBG

演员:Michael Jai White Max Ryan Steve Austin

导演: Kevin Carraway 地区: 美国集数: 0集年代: 2015时间: 88分钟豆瓣评分: 0.0

《连环劫》海报

◎译 名 连环劫/回马枪

◎片 名 Chain of Command

◎年 代 2015

◎国 家 美国

◎类 别 动作/惊悚

◎语 言 英语

◎上映日期 2015-09-08

◎IMDb评分 4.0/10 from 130 users

◎片 长 88 分钟

◎导 演 Kevin Carraway

◎主 演 Michael Jai White

Max Ryan

Steve Austin

连环劫剧情介绍:

Special Operative James Webster (Michael Jai White "Blood and Bone"| "The Dark Knight") just returned home from duty| only to witness the brutal slaying of his

brother. Webster immediately tries to retaliate and hunt down the perpetrators| but as he delves deeper into the secret world of corruption and murder| he finds

himself at the center of a deadly conspiracy that cuts deep inside the walls of the US Government. With the most ruthless military assassin (Steve Austin "The

Expendables"| "WWF Raw") hot on his trail| Webster must expose the corrupt high-ranking officials before he becomes just another victim of the nefarious plot.

Video

ID : 1

Format : AVC

Format/Info : Advanced Video Codec

Format profile : [email protected]

Format settings, CABAC : Yes

Format settings, ReFrames : 4 frames

Codec ID : V_MPEG4/ISO/AVC

Duration : 1h 27mn

Bit rate : 5 167 Kbps

Nominal bit rate : 5 500 Kbps

Width : 1 280 pixels

Height : 720 pixels

Display aspect ratio : 16:9

Frame rate mode : Constant

Frame rate : 23.976 fps

Color space : YUV

Chroma subsampling : 4:2:0

Bit depth : 8 bits

Scan type : Progressive

Bits/(Pixel*Frame) : 0.234

Stream size : 3.17 GiB (76%)

Writing library : x264 core 144 r96 40bb568

Encoding settings : cabac=1 / ref=4 / deblock=1:-2:-2 / analyse=0x3:0x113 / me=umh / subme=7 / psy=1 / psy_rd=1.00:0.15 / mixed_ref=1 / me_range=16 / chroma_me=1 / trellis=1 / 8x8dct=1 / cqm=0 / deadzone=21,11 / fast_pskip=1 / chroma_qp_offset=-3 / threads=12 / lookahead_threads=3 / sliced_threads=0 / nr=0 / decimate=1 / interlaced=0 / bluray_compat=0 / constrained_intra=0 / bframes=3 / b_pyramid=2 / b_adapt=2 / b_bias=0 / direct=3 / weightb=1 / open_gop=0 / weightp=2 / keyint=250 / keyint_min=25 / scenecut=40 / intra_refresh=0 / rc_lookahead=50 / rc=abr / mbtree=1 / bitrate=5500 / ratetol=1.0 / qcomp=0.60 / qpmin=0 / qpmax=69 / qpstep=4 / vbv_maxrate=31250 / vbv_bufsize=31250 / nal_hrd=none / filler=0 / ip_ratio=1.40 / aq=1:1.00

Language : English

Default : Yes

Forced : No

Audio

ID : 2

Format : DTS

Format/Info : Digital Theater Systems

Mode : 16

Format settings, Endianness : Big

Codec ID : A_DTS

Duration : 1h 27mn

Bit rate mode : Constant

Bit rate : 1 509 Kbps

Channel(s) : 6 channels

Channel positions : Front: L C R, Side: L R, LFE

Sampling rate : 48.0 KHz

Bit depth : 24 bits

Compression mode : Lossy

Stream size : 947 MiB (22%)

Language : English

Default : Yes

Forced : No

《连环劫》剧照-1

  温馨提示:您正在浏览的"《连环劫》BT种子下载"的剧情介绍来自于[www.92np.com-就爱那片儿],如果您喜欢本站,请推荐给您的朋友,谢谢您的支持! 最后更新:2015年09月21日

连环劫电影下载:

提示:推荐使用BitComet、Utorrent、QQ旋风、迅雷下载连环劫。喜欢在线看的朋友可以把种子上传到百度网盘、115网盘,离线下载完手机电脑都可以在线看。

连环劫电影评论

更多精彩电影