当前位置:
首页 » 喜剧片 » 爷们些

[爷们些][BD-MKV_1.1GB][英语中英双字]

演员:西蒙·佩吉 蕾克·贝尔 奥莉维亚·威廉姆斯 罗里·金奈尔 奥菲利亚·拉维邦德 斯蒂芬·坎贝尔·莫尔 哈丽特·瓦尔特 亨利·劳埃德-休斯 肯·斯托特 莎朗·豪根 王丽雅 迪恩·查尔斯·查普曼 Paulina Boneva

导演: Ben Palmer 地区: 英国 / 法国集数: 0集年代: 2015时间: 88分钟豆瓣评分: 7.5

《爷们些》海报

◎译 名 爷们些

◎片 名 Man Up

◎年 代 2015

◎国 家 英国/法国

◎类 别 喜剧/爱情

◎语 言 英语

◎上映日期 2015-05-29(英国)

◎IMDb评分 7.0/10 from 1,718 users

◎豆瓣评分 7.5/10 from 118 users

◎片 长 88分钟

◎导 演 Ben Palmer

◎主 演 西蒙·佩吉 Simon Pegg

蕾克·贝尔 Lake Bell

奥莉维亚·威廉姆斯 Olivia Williams

罗里·金奈尔 Rory Kinnear

奥菲利亚·拉维邦德 Ophelia Lovibond

斯蒂芬·坎贝尔·莫尔 Stephen Campbell Moore

哈丽特·瓦尔特 Harriet Walter

亨利·劳埃德-休斯 Henry Lloyd-Hughes

肯·斯托特 Ken Stott

莎朗·豪根 Sharon Horgan

王丽雅 Leila Wong

迪恩·查尔斯·查普曼 Dean-Charles Chapman

Paulina Boneva

爷们些剧情介绍:

  宅女南希决定走出房门,积极地生活,阴差阳错假扮"火车怪客",与陌生男子杰克约会,情投意合的二人能否在真相大白后,得到happily ever after?

Video

ID : 1

Format : AVC

Format/Info : Advanced Video Codec

Format profile : [email protected]

Format settings, CABAC : No

Format settings, ReFrames : 2 frames

Codec ID : V_MPEG4/ISO/AVC

Duration : 1h 27mn

Bit rate : 3 893 Kbps

Width : 1 280 pixels

Height : 528 pixels

Display aspect ratio : 2.40:1

Frame rate mode : Constant

Frame rate : 24.000 fps

Color space : YUV

Chroma subsampling : 4:2:0

Bit depth : 8 bits

Scan type : Progressive

Bits/(Pixel*Frame) : 0.240

Stream size : 2.39 GiB (89%)

Title : Man.Up.2015.720p.WEB-DL.DD5.1.H264-RARBG

Language : English

Default : Yes

Forced : No

Color range : Limited

Color primaries : BT.709

Transfer characteristics : BT.709

Matrix coefficients : BT.709

Audio

ID : 2

Format : AC-3

Format/Info : Audio Coding 3

Mode extension : CM (complete main)

Format settings, Endianness : Big

Codec ID : A_AC3

Duration : 1h 27mn

Bit rate mode : Constant

Bit rate : 384 Kbps

Channel(s) : 6 channels

Channel positions : Front: L C R, Side: L R, LFE

Sampling rate : 48.0 KHz

Compression mode : Lossy

Stream size : 242 MiB (9%)

Title : Man.Up.2015.720p.WEB-DL.DD5.1.H264-RARBG

Language : English

Default : Yes

Forced : No

《爷们些》剧照-1

  温馨提示:您正在浏览的"《爷们些》BT种子下载"的剧情介绍来自于[www.92np.com-就爱那片儿],如果您喜欢本站,请推荐给您的朋友,谢谢您的支持! 最后更新:2015年09月29日

爷们些电影下载:

提示:推荐使用BitComet、Utorrent、QQ旋风、迅雷下载爷们些。喜欢在线看的朋友可以把种子上传到百度网盘、115网盘,离线下载完手机电脑都可以在线看。

爷们些电影评论

更多精彩电影