当前位置:
首页 » 科幻片 » 圣诞节冰晶爆炸

圣诞节冰晶爆炸Christmas.Icetastrophe.2014.1080p.BluRay.x264.DTS-RARBG4.83GB

圣诞节冰晶爆炸 Christmas.Icetastrophe.2014.1080p.BluRay.x264.DTS-RARBG 4.83GB

《圣诞节冰晶爆炸》海报

◎译 名 圣诞节冰晶爆炸

◎片 名 Christmas.Icetastrophe

◎年 代 2014

◎国 家 美国

◎类 别 动作/科幻

◎语 言 英语

◎上映日期 2014

◎IMDb评分 3.9/10 from 407 users

◎片 长 1h 26mn

◎导 演 David Sanderson

◎主 演 Victor Webster ...Charlie Ratchet

Jennifer Spence ...Alex Novak

Richard Harmon ...Tim Ratchet

Tiera Skovbye ...Marley Crooge

圣诞节冰晶爆炸剧情介绍:

  一颗陨星坠落在一座正准备庆祝圣诞节的小镇附近,引发巨大的冰晶爆炸,冰浪可能吞噬地球上所有的生命。Victor Webster(《超越时间线》)、Jennifer Spencer(《星际之门:宇宙》)和Richard Harmon(《贝茨旅馆》)主演该片。

Video

ID : 1

Format : AVC

Format/Info : Advanced Video Codec

Format profile : [email protected]

Format settings, CABAC : Yes

Format settings, ReFrames : 4 frames

Codec ID : V_MPEG4/ISO/AVC

Duration : 1h 26mn

Bit rate : 7 033 Kbps

Width : 1 920 pixels

Height : 1 080 pixels

Display aspect ratio : 16:9

Frame rate mode : Constant

Frame rate : 23.976 fps

Color space : YUV

Chroma subsampling : 4:2:0

Bit depth : 8 bits

Scan type : Progressive

Bits/(Pixel*Frame) : 0.141

Stream size : 4.26 GiB (88%)

Title : Christmas.Icetastrophe.2014.1080p.BluRay.x264.DTS-RARBG

Writing library : x264 core 148 r2597 e86f3a1

Encoding settings : cabac=1 / ref=4 / deblock=1:0:0 / analyse=0x3:0x113 / me=umh / subme=7 / psy=1 / psy_rd=1.00:0.00 / mixed_ref=1 / me_range=16 / chroma_me=1 / trellis=1 / 8x8dct=1 / cqm=0 / deadzone=21,11 / fast_pskip=0 / chroma_qp_offset=-2 / threads=12 / lookahead_threads=2 / sliced_threads=0 / nr=0 / decimate=1 / interlaced=0 / bluray_compat=0 / constrained_intra=0 / bframes=3 / b_pyramid=2 / b_adapt=1 / b_bias=0 / direct=1 / weightb=1 / open_gop=0 / weightp=2 / keyint=250 / keyint_min=23 / scenecut=40 / intra_refresh=0 / rc_lookahead=40 / rc=crf / mbtree=1 / crf=20.0 / qcomp=0.60 / qpmin=0 / qpmax=69 / qpstep=4 / ip_ratio=1.40 / aq=1:1.00

Language : English

Default : Yes

Forced : No

Audio

ID : 2

Format : DTS

Format/Info : Digital Theater Systems

Mode : 16

Format settings, Endianness : Big

Codec ID : A_DTS

Duration : 1h 26mn

Bit rate mode : Constant

Bit rate : 768 Kbps

Channel(s) : 6 channels

Channel positions : Front: L C R, Side: L R, LFE

Sampling rate : 48.0 KHz

Bit depth : 24 bits

Compression mode : Lossy

Stream size : 477 MiB (10%)

Title : Christmas.Icetastrophe.2014.1080p.BluRay.x264.DTS-RARBG

Language : English

Default : Yes

Forced : No

《圣诞节冰晶爆炸》剧照-1

圣诞节冰晶爆炸电影下载:

提示:推荐使用BitComet、Utorrent、QQ旋风、迅雷下载圣诞节冰晶爆炸。喜欢在线看的朋友可以把种子上传到百度网盘、115网盘,离线下载完手机电脑都可以在线看。

圣诞节冰晶爆炸电影评论

更多精彩电影