当前位置:
首页 » 剧情片 » 人质

人质.Captive.2015.1080p.BluRay.DTS.x264-HDS

《人质》海报

◎译 名 人质/随机人质(台)

◎片 名 Captive

◎年 代 2015

◎国 家 美国

◎类 别 剧情/犯罪/惊悚

◎语 言 英语

◎上映日期 2015-09-18(美国)

◎IMDb评分 5.3/10 from 1,124 users

◎豆瓣评分 6.0/10 from 52 users

◎片 长 97分钟

◎导 演 杰瑞·詹姆森 Jerry Jameson

◎主 演 凯特·玛拉 Kate Mara

大卫·奥伊罗 David Oyelowo

迈克尔·威廉姆斯 Michael K. Williams

咪咪·罗杰斯 Mimi Rogers

蕾奥娜·维埃拉 Leonor Varela

杰西卡·奥伊罗 Jessica Oyelowo

迈克尔·梅卡尔迪 Michael Mercaldi

马特·洛 Matt Lowe

梅丽莎·伊斯特伍德 Melissa Eastwood

J·凯伦·托马斯 J. Karen Thomas

迈克尔·哈丁 Michael Harding

E·罗杰·米切尔 E. Roger Mitchell

乔安娜·乔维特 Johanna Jowett

人质剧情介绍:

  沉湎于毒品的单身母亲阿什利·史密斯(凯特·玛拉 Kate Mara 饰)在自己家中,被忽然闯入的黑人男子布莱恩·尼科尔斯(大卫·奥伊罗 David Oyelowo 饰)劫为人质,布莱恩是一名越狱的逃犯,警方还认为他杀害了审查他案件的法官。然而,这段劫持与被劫持的经历最终让他们拯救了彼此的人生。

  本片改编自《意外的天使》,由阿什利·史密斯根据亲身经历所著。

《人质》剧照-1《人质》剧照-2《人质》剧照-3《人质》剧照-4《人质》剧照-5《人质》剧照-6

General

Unique ID : 202214474226518089131099150062277860174 (0x98211752FE73A8FC88CD277CF5539B4E)

Complete name : D:PT已完成任务Captive.2015.1080p.BluRay.DTS.x264-HDSCaptive.2015.1080p.BluRay.DTS.x264-HDS.mkv

Format : Matroska

Format version : Version 4 / Version 2

File size : 10.0 GiB

Duration : 1h 37mn

Overall bit rate : 14.8 Mbps

Movie name : Captive.2015.1080p.BluRay.DTS.x264-HDS

Encoded date : UTC 2016-01-09 04:43:43

Writing application : mkvmerge v8.7.0 ('All of the above') 64bit

Writing library : libebml v1.3.3 + libmatroska v1.4.4

Video

ID : 1

Format : AVC

Format/Info : Advanced Video Codec

Format profile : [email protected]

Format settings, CABAC : Yes

Format settings, ReFrames : 4 frames

Codec ID : V_MPEG4/ISO/AVC

Duration : 1h 37mn

Bit rate : 13.3 Mbps

Width : 1 920 pixels

Height : 1 080 pixels

Display aspect ratio : 16:9

Frame rate mode : Constant

Frame rate : 23.976 (24000/1001) fps

Color space : YUV

Chroma subsampling : 4:2:0

Bit depth : 8 bits

Scan type : Progressive

Bits/(Pixel*Frame) : 0.267

Stream size : 9.00 GiB (90%)

Title : GalenMao(StoneStudio)

Default : Yes

Forced : No

Audio

ID : 2

Format : DTS

Format/Info : Digital Theater Systems

Mode : 16

Format settings, Endianness : Big

Codec ID : A_DTS

Duration : 1h 37mn

Bit rate mode : Constant

Bit rate : 1 509 Kbps

Channel(s) : 6 channels

Channel positions : Front: L C R, Side: L R, LFE

Sampling rate : 48.0 KHz

Frame rate : 93.750 fps (512 spf)

Bit depth : 24 bits

Compression mode : Lossy

Stream size : 1.02 GiB (10%)

Title : English DTS Audio 5.1

Language : English

Default : Yes

Forced : No

Text

ID : 3

Format : PGS

Muxing mode : zlib

Codec ID : S_HDMV/PGS

Codec ID/Info : Picture based subtitle format used on BDs/HD-DVDs

Duration : 1h 30mn

Bit rate : 8 488 bps

Count of elements : 1852

Stream size : 5.48 MiB (0%)

Title : English PGS

Language : English

Default : Yes

Forced : No

Menu

00:00:00.000 : en:00:00:00.000

00:05:24.366 : en:00:05:24.366

00:10:19.244 : en:00:10:19.244

00:14:30.912 : en:00:14:30.912

00:19:38.052 : en:00:19:38.052

00:25:40.664 : en:00:25:40.664

00:31:23.548 : en:00:31:23.548

00:37:18.736 : en:00:37:18.736

00:43:18.179 : en:00:43:18.179

00:47:06.782 : en:00:47:06.782

00:52:34.568 : en:00:52:34.568

00:57:48.507 : en:00:57:48.507

01:04:46.341 : en:01:04:46.341

01:11:44.884 : en:01:11:44.884

01:16:59.031 : en:01:16:59.031

01:21:53.742 : en:01:21:53.742

01:27:58.857 : en:01:27:58.857

01:32:20.368 : en:01:32:20.368

人质电影下载:

提示:推荐使用BitComet、Utorrent、QQ旋风、迅雷下载人质。喜欢在线看的朋友可以把种子上传到百度网盘、115网盘,离线下载完手机电脑都可以在线看。

人质电影评论

更多精彩电影