当前位置:
首页 » 剧情片 » 无理之人

无理之人[中文字幕].Irrational Man1080p BluRay AVC DTS-HD MA 5 [email protected]

《无理之人》海报

◎译 名 无理之人/情迷失控点(港)/爱情失控点(台)/非理性的人

◎片 名 Irrational Man

◎年 代 2015

◎国 家 美国

◎类 别 悬疑

◎语 言 英语

◎上映日期 2015-05-15(戛纳电影节)/2015-07-17(美国)

◎IMDb评分 6.7/10 from 13,136 users

◎豆瓣评分 7.2/10 from 4,677 users

◎片 长 96分钟

◎导 演 伍迪·艾伦 Woody Allen

◎主 演 艾玛·斯通 Emma Stone

杰昆·菲尼克斯 Joaquin Phoenix

杰米·布莱克利 Jamie Blackley

帕克·波西 Parker Posey

伊桑·菲利普斯 Ethan Phillips

大卫·阿隆·贝克 David Aaron Baker

Meredith Hagner

本·罗森菲尔德 Ben Rosenfield

Sophie von Haselberg

无理之人剧情介绍:

  影片讲述了一起大学校园里的谋杀案。杰昆·菲尼克斯饰演一名满腹经纶又酗酒的哲学教授,他把"完美谋杀"当成了解决自身存在主义危机的出路。新英格兰Braylin大学的教授阿贝·卢卡斯(杰昆·菲尼克斯)与他的女学生吉尔·波拉德(艾玛·斯通)关系非比寻常。吉尔的男友罗伊(杰米·布莱克利)十分反感她总是谈起阿尔,无可奈何只能与她分手。吉尔与阿贝一起用餐时,偶然听到一个女人抱怨她被法官裁决将失去孩子的监护权。阿贝很同情那个女人,决定帮她把法官除掉,他没有告诉吉尔。由于他会看起来与这起案件毫无联系,别人不会怀疑到他。阿尔从学校实验室偷来了氰化物,放在法官的橙汁杯子里。果然他很快得逞了。学校的同事丽塔(帕克·波西)发现了阿贝的罪行,然而她不但不去告发他,反而愿意离开自己的丈夫,和阿尔一起出国。最终阿贝也不得不向吉尔坦白--

《无理之人》剧照-1《无理之人》剧照-2《无理之人》剧照-3《无理之人》剧照-4《无理之人》剧照-5《无理之人》剧照-6

General

ID : 1 (0x1)

Format : BDAV

Format/Info : Blu-ray Video

File size : 20.4 GiB

Duration : 1h 34mn

Overall bit rate mode : Variable

Overall bit rate : 30.8 Mbps

Maximum Overall bit rate : 35.5 Mbps

Video

ID : 4113 (0x1011)

Menu ID : 1 (0x1)

Format : AVC

Format/Info : Advanced Video Codec

Format profile : [email protected]

Format settings, CABAC : Yes

Format settings, ReFrames : 2 frames

Codec ID : 27

Duration : 1h 34mn

Bit rate mode : Variable

Width : 1 920 pixels

Height : 1 080 pixels

Display aspect ratio : 16:9

Frame rate : 23.976 (24000/1001) fps

Color space : YUV

Chroma subsampling : 4:2:0

Bit depth : 8 bits

Scan type : Progressive

Audio #1

ID : 4352 (0x1100)

Menu ID : 1 (0x1)

Format : DTS

Format/Info : Digital Theater Systems

Format profile : MA / Core

Mode : 16

Format settings, Endianness : Big

Muxing mode : Stream extension

Codec ID : 134

Duration : 1h 34mn

Bit rate mode : Variable / Constant

Bit rate : Unknown / 1 509 Kbps

Channel(s) : 6 channels

Channel positions : Front: L C R, Side: L R, LFE

Sampling rate : 48.0 KHz

Frame rate : 93.750 fps (512 spf)

Bit depth : 16 bits

Compression mode : Lossless / Lossy

Audio #2

ID : 4353 (0x1101)

Menu ID : 1 (0x1)

Format : AC-3

Format/Info : Audio Coding 3

Mode extension : CM (complete main)

Format settings, Endianness : Big

Codec ID : 129

Duration : 1h 34mn

Bit rate mode : Constant

Bit rate : 640 Kbps

Channel(s) : 6 channels

Channel positions : Front: L C R, Side: L R, LFE

Sampling rate : 48.0 KHz

Frame rate : 31.250 fps (1536 spf)

Compression mode : Lossy

Stream size : 434 MiB (2%)

Audio #3

ID : 4354 (0x1102)

Menu ID : 1 (0x1)

Format : DTS

Format/Info : Digital Theater Systems

Format profile : MA / Core

Mode : 16

Format settings, Endianness : Big

Muxing mode : Stream extension

Codec ID : 134

Duration : 1h 34mn

Bit rate mode : Variable / Constant

Bit rate : Unknown / 1 509 Kbps

Channel(s) : 6 channels

Channel positions : Front: L C R, Side: L R, LFE

Sampling rate : 48.0 KHz

Frame rate : 93.750 fps (512 spf)

Bit depth : 16 bits

Compression mode : Lossless / Lossy

Audio #4

ID : 4355 (0x1103)

Menu ID : 1 (0x1)

Format : AC-3

Format/Info : Audio Coding 3

Mode extension : CM (complete main)

Format settings, Endianness : Big

Codec ID : 129

Duration : 1h 34mn

Bit rate mode : Constant

Bit rate : 640 Kbps

Channel(s) : 6 channels

Channel positions : Front: L C R, Side: L R, LFE

Sampling rate : 48.0 KHz

Frame rate : 31.250 fps (1536 spf)

Compression mode : Lossy

Stream size : 434 MiB (2%)

Text #1

ID : 4608 (0x1200)

Menu ID : 1 (0x1)

Format : PGS

Codec ID : 144

Delay relative to video : 20s 103ms

Text #2

ID : 4609 (0x1201)

Menu ID : 1 (0x1)

Format : PGS

Codec ID : 144

Text #3

ID : 4610 (0x1202)

Menu ID : 1 (0x1)

Format : PGS

Codec ID : 144

Text #4

ID : 4611 (0x1203)

Menu ID : 1 (0x1)

Format : PGS

Codec ID : 144

Delay relative to video : 19s 227ms

Text #5

ID : 4612 (0x1204)

Menu ID : 1 (0x1)

Format : PGS

Codec ID : 144

Delay relative to video : 19s 686ms

Text #6

ID : 4613 (0x1205)

Menu ID : 1 (0x1)

Format : PGS

Codec ID : 144

Delay relative to video : 19s 686ms

Text #7

ID : 4614 (0x1206)

Menu ID : 1 (0x1)

Format : PGS

Codec ID : 144

Delay relative to video : 19s 686ms

Text #8

ID : 4615 (0x1207)

Menu ID : 1 (0x1)

Format : PGS

Codec ID : 144

Delay relative to video : 19s 686ms

无理之人电影下载:

提示:由于该资源受到用户投诉或版权方要求,已经停止链接分享

无理之人电影评论

更多精彩电影