当前位置:
首页 » 罪案片 » 美国狂魔

美国狂魔 American.Psycho.2000.BluRay.720p.x264.AC3-WOFEI 中英字幕

《美国狂魔》海报

◎译 名 美国狂魔/美色杀人狂

◎片 名 American Psycho

◎年 代 2000

◎国 家 美国

◎类 别 犯罪/剧情

◎语 言 英语

◎字 幕 中英字幕/英中字幕/中文字幕/英文字幕

◎IMDB评分 7.3/10 (74,565votes)

◎文件格式 X264 + AC3

◎视频尺寸 1280 x 720

◎文件大小 1CD 2.05GB

◎导 演 玛丽·哈伦 Mary Harron

◎主 演 克里斯蒂安·贝尔 Christian Bale

加斯丁·特奥克斯 Justin Theroux

乔什·卢卡斯 Josh Lucas

比尔·沙加 Bill Sage

科洛·塞维尼 Chlo? Sevigny

瑞茜·威瑟斯彭 Reese Witherspoon

美国狂魔剧情介绍:

  你确信认识他吗?帕特里克·贝特曼是华尔街的骄子,炙手可热的股票经纪人,年轻有为的他每天给自己的客户们赚进无数的美元。这么说吧,他绝对是个帮你管钱敛钱的好朋友。

  这个年轻的小伙子受过良好的教育,英俊迷人,谈吐风趣幽默。不过,这一切仅在白天有效。当夜幕降临时,黑暗的无边恐怖唤醒了贝特曼双重性格中"evil"的一面。他是一个魔鬼。一个穿着雨衣在大街上踟蹰的魔鬼。贝特曼内心孤寂无靠,他需要一点点东西来刺激一下自己冷漠的感情。

  寂寂黑夜。贝特曼将一个个猎物绑架到他的豪华公寓,一点一点折磨,看着鲜血慢慢涌出,猎物痛苦地死去,一种莫名的快感袭击着贝特曼。尤其是坐在那儿,悠闲地抽着雪茄,看着在房间里悬挂摇摆的躯体,贝特曼从未体会过如此的心悸与平静。

  贝特曼的双重性格让他终日忙碌。然而罪恶终是无法掩盖,一个冷血的连环杀人案凶手的结局会是怎样呢?贝特曼找到了心中的天堂吗?

◎幕后制作

  你若觉得这不可信,那是因为这是一个象征性的寓言,暗示那华尔街的大亨都是榨取老百姓血汗的吸血鬼,借此批判里根年代的拜金主义(即经济高速发展时的必然现象)。影片的人物塑造属于漫画式,但场景的视觉效果并不差,至少可以让中国的有识之士感受一下人家赚钱后是怎么挥霍的。女导演津津乐道于主角的裸体戏,据称是女权主义胜利的象征。其实在影片最初的筹拍阶段,莱昂纳多·迪卡普里奥曾对男主角很感兴趣,狮门公司于是发布了迪卡普里奥即将领衔主演的新闻,结果得知此事的玛丽·哈伦愤然离去,因为此事根本没争取她的意见,而且她希望由克里斯汀·贝尔来扮演帕特里克。在她走后,奥利弗·斯通开始同制片方交涉,放出的口风更让媒体轰动,因为他盯准了巨额投入。后来当迪卡普里奥和斯通都退出拍摄计划后,哈伦和贝尔重新归队。

◎拍摄花絮

  ·制片方最初计划的阵容是由莱昂纳多·迪卡普里奥扮演帕特里克,由詹姆斯·伍兹扮演唐纳德,由卡梅隆·迪亚茨扮演伊夫林,导演则是奥利弗·斯通。

  ·制片方曾希望由爱德华·诺顿扮演帕特里克,但被他拒绝。

  ·片中帕特里克的电视中播放的影片是1974年的《德州电锯杀人狂》。

  ·在片中扮演帕特里克的朋友伊丽莎白的圭尼维娅·特纳(Guinevere Turner)还是本片编剧。

·帕特里克看的第一部色情片是1998年的《White Angel》。

General

Unique ID : 184141942782252234691830002635081121754 (0x8A8872BAC1FFFA089D0120BABFD1FFDA)

Format : Matroska

Format version : Version 2

File size : 2.05 GiB

Duration : 1h 42mn

Overall bit rate : 2 876 Kbps

Encoded date : UTC 2012-07-19 12:38:01

Writing application : mkvmerge v3.4.0 ('Rapunzel') 编译于 May 15 2010 09:38:20

Writing library : libebml v0.8.0 + libmatroska v0.9.0

Video #1

ID : 1

Format : AVC

Format/Info : Advanced Video Codec

Format profile : [email protected]

Format settings, CABAC : Yes

Format settings, ReFrames : 6 frames

Codec ID : V_MPEG4/ISO/AVC

Duration : 1h 42mn

Bit rate : 2 427 Kbps

Width : 1 280 pixels

Height : 720 pixels

Display aspect ratio : 16:9

Frame rate : 23.976 fps

Color space : YUV

Chroma subsampling : 4:2:0

Bit depth : 8 bits

Scan type : Progressive

Bits/(Pixel*Frame) : 0.110

Stream size : 1.69 GiB (82%)

Writing library : x264 core 116 r2074 2641b9e

Encoding settings : cabac=1 / ref=6 / deblock=1:-1:-1 / analyse=0x3:0x113 / me=umh / subme=6 / psy=1 / psy_rd=1.00:0.00 / mixed_ref=1 / me_range=16 / chroma_me=1 / trellis=2 / 8x8dct=1 / cqm=0 / deadzone=21,11 / fast_pskip=1 / chroma_qp_offset=-2 / threads=12 / sliced_threads=0 / nr=0 / decimate=1 / interlaced=0 / bluray_compat=0 / constrained_intra=0 / bframes=3 / b_pyramid=0 / b_adapt=1 / b_bias=0 / direct=3 / weightb=1 / open_gop=0 / weightp=2 / keyint=250 / keyint_min=23 / scenecut=40 / intra_refresh=0 / rc_lookahead=40 / rc=2pass / mbtree=1 / bitrate=2427 / ratetol=1.0 / qcomp=0.60 / qpmin=0 / qpmax=69 / qpstep=4 / cplxblur=20.0 / qblur=0.5 / ip_ratio=1.40 / aq=1:1.00

Language : English

Audio #2

ID : 2

Format : AC-3

Format/Info : Audio Coding 3

Mode extension : CM (complete main)

Codec ID : A_AC3

Duration : 1h 42mn

Bit rate mode : Constant

Bit rate : 448 Kbps

Channel(s) : 6 channels

Channel positions : Front: L C R, Side: L R, LFE

Sampling rate : 48.0 KHz

Bit depth : 16 bits

Compression mode : Lossy

Stream size : 327 MiB (16%)

Text #3

ID : 3

Format : SSA

Codec ID : S_TEXT/SSA

Codec ID/Info : Sub Station Alpha

Compression mode : Lossless

Title : 中英

Text #4

ID : 4

Format : SSA

Codec ID : S_TEXT/SSA

Codec ID/Info : Sub Station Alpha

Compression mode : Lossless

Title : 英中

Text #5

ID : 5

Format : UTF-8

Codec ID : S_TEXT/UTF8

Codec ID/Info : UTF-8 Plain Text

Title : 中文

Text #6

ID : 6

Format : UTF-8

Codec ID : S_TEXT/UTF8

Codec ID/Info : UTF-8 Plain Text

Title : 英文

美国狂魔电影下载:

提示:由于该资源受到用户投诉或版权方要求,已经停止链接分享

美国狂魔电影评论

更多精彩电影