当前位置:
首页 » 喜剧片 » 玩尽杀绝

玩尽杀绝 Wild.Things.Unrated.1998.BluRay.720p.x264.AC3-WOFEI 中英字幕

《玩尽杀绝》海报

◎译 名 野东西/玩尽杀绝

◎片 名 Wild Things

◎年 代 1998

◎国 家 美国

◎类 别 喜剧/犯罪/剧情/神秘/惊悚

◎语 言 英语

◎字 幕 中英字幕/中文字幕/英中字幕/英文字幕

◎IMDB评分 6.6/10 (30,430 votes)

◎文件格式 X264 + AC3

◎视频尺寸 1280 x 720

◎文件大小 1CD 2.18G

◎片 长 115MiN

◎导 演 约翰·麦克诺顿 John McNaughton

◎主 演 马特·狄龙 Matt Dillon .....Sam Lombardo

凯文·贝肯 Kevin Bacon .....Sgt. Ray Duquette

内芙·坎贝尔 Neve Campbell .....Suzie Marie Toller

泰莉莎·拉塞尔 Theresa Russell .....Sandra Van Ryan

丹妮丝·理查兹 Denise Richards .....Kelly Lanier Van Ryan

Daphne Rubin-Vega .....Det. Gloria Perez

Robert Wagner .....Tom Baxter

比尔·默瑞 Bill Murray .....Kenneth Bowden

Carrie Snodgress .....Ruby

杰夫·帕里 Jeff Perry .....District Attorney Bryce Hunter

◎分 级:美国:Unrated 西班牙:18 德国:16

◎剧 情:

  佛罗里达,阳光明媚的蓝湾。高中教师萨姆.隆巴多受到指控,说他XX任教学校一位很受欢迎的女学生凯莉。这一下掀起轩然大波,学生家长、同学、同事以及萨姆自己,全都失去往日的平静。然而,就在案件审理过程中,侦探雷.杜奎特发现已经辍学的女学生苏西也与此事有关,她手里似乎掌握澄清整个事件的证据。看来,萨姆、凯莉和苏西三个人之间有着不可告人的秘密。随着调查的深入,一层层神秘的面纱被揭去,一切都不像人们意料的那么简单......

幕 后:

  号称98年Y世代必看的校园悬疑激情片《野东西》,由跃升为邦德女郎的丹妮丝·理察斯、妮芙·坎贝儿和麦特·狄伦,大搞淫乱的三角关系。富家女丹妮丝向学校的辅导员麦特·狄伦自动投怀送抱却遭拒绝,恼羞成怒的丹妹索性告上法庭,硬是指证色鬼老师强暴,半途跳出个妮芙·坎贝儿也说自己也曾被老麦欺负。老麦当然也不甘示弱,反控花痴女巫告,害得丹妹的有钱老妈,得付上好几百万的赔尝金。结果,出人意料的竟然是花痴女早就和色鬼教师预谋诓骗老妈,而妮芙·坎贝儿居然也是共犯之一。三个最后还来个香艳火辣的床上三人行,不过老实说,光看双姝傲人的身材,就已经够呛的啦!

General

Unique ID : 194370935399034304198216220327284689582 (0x923A7B00C2B62A9AA18FFCCA885DCAAE)

Format : Matroska

Format version : Version 2

File size : 2.19 GiB

Duration : 1h 54mn

Overall bit rate : 2 726 Kbps

Encoded date : UTC 2012-08-17 08:24:04

Writing application : mkvmerge v3.4.0 ('Rapunzel') 编译于 May 15 2010 09:38:20

Writing library : libebml v0.8.0 + libmatroska v0.9.0

Video #1

ID : 1

Format : AVC

Format/Info : Advanced Video Codec

Format profile : [email protected]

Format settings, CABAC : Yes

Format settings, ReFrames : 5 frames

Codec ID : V_MPEG4/ISO/AVC

Duration : 1h 54mn

Bit rate : 2 276 Kbps

Width : 1 280 pixels

Height : 720 pixels

Display aspect ratio : 16:9

Frame rate : 23.976 fps

Color space : YUV

Chroma subsampling : 4:2:0

Bit depth : 8 bits

Scan type : Progressive

Bits/(Pixel*Frame) : 0.103

Stream size : 1.78 GiB (82%)

Writing library : x264 core 116 r2074 2641b9e

Encoding settings : cabac=1 / ref=5 / deblock=1:-1:-1 / analyse=0x3:0x113 / me=umh / subme=6 / psy=1 / psy_rd=1.00:0.00 / mixed_ref=1 / me_range=16 / chroma_me=1 / trellis=2 / 8x8dct=1 / cqm=0 / deadzone=21,11 / fast_pskip=1 / chroma_qp_offset=-2 / threads=12 / sliced_threads=0 / nr=0 / decimate=1 / interlaced=0 / bluray_compat=0 / constrained_intra=0 / bframes=3 / b_pyramid=0 / b_adapt=1 / b_bias=0 / direct=3 / weightb=1 / open_gop=0 / weightp=2 / keyint=250 / keyint_min=23 / scenecut=40 / intra_refresh=0 / rc_lookahead=40 / rc=2pass / mbtree=1 / bitrate=2276 / ratetol=1.0 / qcomp=0.60 / qpmin=10 / qpmax=51 / qpstep=4 / cplxblur=20.0 / qblur=0.5 / vbv_maxrate=50000 / vbv_bufsize=50000 / nal_hrd=none / ip_ratio=1.40 / aq=1:1.00

Language : English

Audio #2

ID : 2

Format : AC-3

Format/Info : Audio Coding 3

Mode extension : CM (complete main)

Codec ID : A_AC3

Duration : 1h 54mn

Bit rate mode : Constant

Bit rate : 448 Kbps

Channel(s) : 6 channels

Channel positions : Front: L C R, Side: L R, LFE

Sampling rate : 48.0 KHz

Bit depth : 16 bits

Compression mode : Lossy

Stream size : 368 MiB (16%)

Text #3

ID : 3

Format : SSA

Codec ID : S_TEXT/SSA

Codec ID/Info : Sub Station Alpha

Compression mode : Lossless

Title : 中英

Text #4

ID : 4

Format : SSA

Codec ID : S_TEXT/SSA

Codec ID/Info : Sub Station Alpha

Compression mode : Lossless

Title : 英中

Text #5

ID : 5

Format : UTF-8

Codec ID : S_TEXT/UTF8

Codec ID/Info : UTF-8 Plain Text

Title : 中文

Text #6

ID : 6

Format : UTF-8

Codec ID : S_TEXT/UTF8

Codec ID/Info : UTF-8 Plain Text

Title : 英文

玩尽杀绝电影下载:

提示:推荐使用BitComet、Utorrent、QQ旋风、迅雷下载玩尽杀绝。喜欢在线看的朋友可以把种子上传到百度网盘、115网盘,离线下载完手机电脑都可以在线看。

玩尽杀绝电影评论

更多精彩电影