当前位置:
首页 » 罪案片 » 高个夜魔

高个夜魔 The.Tall.Man.2012.BluRay.720p.x264.AC3-WOFEI 中英字幕

《高个夜魔》海报

◎译 名 高个男人/高个夜魔

◎片 名 The Tall Man

◎年 代 2012

◎国 家 美国/加拿大/法国

◎类 别 犯罪/剧情/神秘/惊悚

◎语 言 英语

◎字 幕 中英字幕/中文字幕/英中字幕/英文字幕

◎IMDB评分 6.0/10 from 4,413 users

◎IMDB链接 #/forum-132-1.html

◎文件格式 x264 + AC3

◎视频尺寸 1280 x 720

◎文件大小 1CD 2.05GB

◎片 长 1 hour 46 minutes

◎导 演 巴斯卡·劳吉尔 Pascal Laugier

◎主 演 杰西卡·贝尔 Jessica Biel ....Julia Denning

史蒂芬·麦克哈蒂 Stephen McHattie ....Lt. Dodd

萨曼莎·费里斯 Samantha Ferris ....Tracy

祖蒂·弗兰 Jodelle Ferland

Janet Wright ....Trish

G. Michael Gray ....Father of Missing Boy

雅各布·戴维斯 Jakob Davies ....David

Teach Grant ....Steven

Alicia Gray ....Young Mother #3

Eve Harlow ....Christine

John Mann ....Douglas

Jodi Sadowsky ....David's New Mother

Garwin Sanford ....Robert

Josh Strait

Colleen Wheeler ....Mrs. Johnson

Derek J. Finnik ....FBI Agent (uncredited)

William B. Davis ....Sheriff Chestnut

Katherine Ramdeen ....Carol

Ferne Downey ....Lady / Mrs. Parker Leigh

Lucas Myers ....Deputy Campbell

Pat Henman ....Nurse at police Infirmary

Georgia Swedish ....Mrs. Ashcroft

Jenna Gatschene ....Waitress at Diner

Prya Lily Campbell ....Tiffany

John Ryan ....Prison Guard

Kevin DeWalt ....Prison Guard #2

Melissa Gibson ....Female Guard

Melissa Patenaude ....Inmate #1

Michele Mungall ....Inmate #2

Jacqueline Eggie ....Inmate #3

Angela Stott ....Inmate #4

Ricardo Hubbs ....Tall Cook

Rene Mousseux ....Silhouette

Steve Taylor ....Roughman Crowley

高个夜魔剧情介绍:

  故事发生在一个以采矿业为主的小镇上,这里的孩童总是神秘失踪,镇上流传着一个关于"高个男人"的可怕谣言,声称有一个谜一般的专门拐卖儿童的凶手。杰西卡·贝尔饰演的母亲是镇上一位护士,对这样的谣言她将信将疑,直到一个深夜她亲眼见到自己的儿子被一个蒙面高个男人掳走,这位绝望的母亲拼尽全力也要寻回自己的儿子--

一句话评论

  导演用了大量时间营造气氛,但是在故事上却功亏一篑。

--《洛杉矶时报》

  影片的开始像是一个鬼故事,但是随着剧情的展开,人们看到的是一个并不缺乏深度的关于道德选择的故事。非常就有娱乐效果。

--《纽约时报》

  影片野心勃勃,实际情况也很不错。除了故事稍微有点平庸之外,其他地方都可圈可点。

--AV Club

  如果你是一个家长,那么对这部电影的情节,你肯定会五味杂陈。因为这部电影的故事,几乎就是每个家长的摇摆不定、挥之不去的梦魇。

--Newark Star-Ledger

◎幕后制作

杂糅的恐怖片

  在戛纳长大的法国导演巴斯卡·劳吉尔算是新的Video世代中的一员,成长于70年代,经历了电影的黄金时代,他在青葱岁月里寻找到了自己的精神寄托--恐怖片。劳吉尔说:"卡朋特和达里欧·阿基多的影片非常具有原创性,令人难忘。在我年轻的时候,陪我度过了很长时间的业余时间,而且,到现在为止,还是我拍摄电影的灵感来源。"

  恐怖片,在很多年之前,以吓人和恐怖为第一要务,对剧情和主题并没有什么特殊的要求。而且,人们对于恐怖片的普遍看法也就是肤浅、无聊、简单之类的负面之词。对于此,劳吉尔并不买账。他说:"我最不喜欢那些给恐怖片贴标签的做法了。我想拍摄的是一部具有优良情节、并且能发人深省的影片。所以我就创作了《高个男人》的故事。在表面上,这部影片讲述的人口失踪,一个护士追寻凶手的影片。可是在主题上,这部电影涉及了非常重要的道德问题,也就是说,我们能出于好心而去犯罪或者是做出不合法的事情么?影片里所展示的,并不是一个单纯的故事,而是一个故事原型,我提出这个问题,希望有人能给予解答。我并不觉得这是一部类型电影,虽然很多导演都在拍类型片,但是我不想这么做。我在恐怖片里加入了对道德、对人性、对良知的拷问,显得非常杂糅。我个人倒是很喜欢这样的风格,因为这提升了恐怖片的主题,并且让恐怖片更有深度和内涵。这是我拍摄过的成本最高的影片,也正是因为如此,我才为影片设计了一个巨大的结构,用一个让人难接受的故事来表达我对恐怖片的改良。"

不一样的主角

  以往恐怖片里的主角,大多数是不明就里的糊涂蛋,莫名其妙地就在被追杀。而在这部影片中,主角却变成了一个寻找自己失踪孩子的母亲。应该说,这并不是恐怖片常用的人物设置,而是一般意义上的剧情片才使用的。关于这样的主角,劳吉尔说:"这样的角色,反而会让人产生一种情绪的带入作用,而不是在银幕上看她被不知名的东西来来回回折腾。我们能不由自主地进入这个角色,并且和她一起经历各种各样奇怪的事情。"

  这个进入层层险境,抽丝剥茧寻找孩子失踪蛛丝马迹的母亲,叫做朱莉亚·邓宁,其扮演者是杰西卡·贝尔。这个角色,和贝尔为人所熟知的角色,非常不一样。应该说,这是贝尔对自己的一个挑战。贝尔说:"对我来说,这个角色真的是一个巨大的挑战。我和劳吉尔在拍摄的准备阶段做了很多功课,而且也用了很多方法让我入戏。我和很多孩子走势的母亲谈过,也在警察局里观察过那些前来报案的妈妈,我努力从身体和精神上做到相似。在现场,每一个镜头的拍摄,对我来说都是不小的挑战。不过,我倒是很喜欢这样的拍摄过程,因为身在其中,真的能感受到很多不一样的东西,比如说母爱、比如说那种丧子之痛。正是因为我从来没有出演过这样的角色,所以这部电影对我才是一个历练。我很感谢给我这个机会的导演与制片公司,因为能在这样的一部电影里扮演一个备受摧残但是依旧不依不饶的母亲,我感觉到非常的荣幸,毕竟,出演这种电影的机会并不是唾手可得的。而且,这部电影的气质与情节也不同于一般意义上的恐怖片。它真的具有某种不一样的特质和氛围。而且,影片的结尾,在我看来是神来之笔,我非常喜欢。"

◎拍摄花絮

  ·在导演巴斯卡·劳吉尔所拍摄过的所有长片里,本片是成本最高的一部。

  ·影片在加拿大的英属哥伦比亚东南边的库特奈人聚集区拍摄。

·在小范围上映之后25天,影片将直接发行BD和DVD。

General

Unique ID : 252492926739589261999081460970194339817 (0xBDF45E6BFEC02FC2BE5858F8F4DA07E9)

Format : Matroska

Format version : Version 2

File size : 2.05 GiB

Duration : 1h 45mn

Overall bit rate : 2 776 Kbps

Encoded date : UTC 2012-10-25 16:07:33

Writing application : mkvmerge v3.4.0 ('Rapunzel') 编译于 May 15 2010 09:38:20

Writing library : libebml v0.8.0 + libmatroska v0.9.0

Video #1

ID : 1

Format : AVC

Format/Info : Advanced Video Codec

Format profile : [email protected]

Format settings, CABAC : Yes

Format settings, ReFrames : 5 frames

Codec ID : V_MPEG4/ISO/AVC

Duration : 1h 45mn

Bit rate : 2 327 Kbps

Width : 1 280 pixels

Height : 720 pixels

Display aspect ratio : 16:9

Frame rate : 23.976 fps

Color space : YUV

Chroma subsampling : 4:2:0

Bit depth : 8 bits

Scan type : Progressive

Bits/(Pixel*Frame) : 0.105

Stream size : 1.68 GiB (82%)

Writing library : x264 core 116 r2074 2641b9e

Encoding settings : cabac=1 / ref=5 / deblock=1:-1:-1 / analyse=0x3:0x113 / me=umh / subme=6 / psy=1 / psy_rd=1.00:0.00 / mixed_ref=1 / me_range=16 / chroma_me=1 / trellis=2 / 8x8dct=1 / cqm=0 / deadzone=21,11 / fast_pskip=1 / chroma_qp_offset=-2 / threads=12 / sliced_threads=0 / nr=0 / decimate=1 / interlaced=0 / bluray_compat=0 / constrained_intra=0 / bframes=3 / b_pyramid=0 / b_adapt=1 / b_bias=0 / direct=3 / weightb=1 / open_gop=0 / weightp=2 / keyint=250 / keyint_min=23 / scenecut=40 / intra_refresh=0 / rc_lookahead=40 / rc=2pass / mbtree=1 / bitrate=2327 / ratetol=1.0 / qcomp=0.60 / qpmin=10 / qpmax=51 / qpstep=4 / cplxblur=20.0 / qblur=0.5 / vbv_maxrate=50000 / vbv_bufsize=50000 / nal_hrd=none / ip_ratio=1.40 / aq=1:1.00

Audio #2

ID : 2

Format : AC-3

Format/Info : Audio Coding 3

Mode extension : CM (complete main)

Codec ID : A_AC3

Duration : 1h 45mn

Bit rate mode : Constant

Bit rate : 448 Kbps

Channel(s) : 6 channels

Channel positions : Front: L C R, Side: L R, LFE

Sampling rate : 48.0 KHz

Bit depth : 16 bits

Compression mode : Lossy

Stream size : 339 MiB (16%)

Text #3

ID : 3

Format : SSA

Codec ID : S_TEXT/SSA

Codec ID/Info : Sub Station Alpha

Compression mode : Lossless

Title : 中英

Text #4

ID : 4

Format : SSA

Codec ID : S_TEXT/SSA

Codec ID/Info : Sub Station Alpha

Compression mode : Lossless

Title : 英中

Text #5

ID : 5

Format : UTF-8

Codec ID : S_TEXT/UTF8

Codec ID/Info : UTF-8 Plain Text

Title : 中文

Text #6

ID : 6

Format : UTF-8

Codec ID : S_TEXT/UTF8

Codec ID/Info : UTF-8 Plain Text

Title : 英文

高个夜魔电影下载:

提示:推荐使用BitComet、Utorrent、QQ旋风、迅雷下载高个夜魔。喜欢在线看的朋友可以把种子上传到百度网盘、115网盘,离线下载完手机电脑都可以在线看。

高个夜魔电影评论

更多精彩电影