当前位置:
首页 » 爱情片 » 情圣囧色夫

[1080p蓝光]情圣囧色夫/唐璜之瘾/超急情圣(台)/性人君子(港) Don Jon1080p RC BluRay DD5.1 x264-RARBG

◎译 名 情圣囧色夫/唐璜/唐璜之瘾/超急情圣(台)/性人君子(港)

◎片 名 Don Jon

◎年 代 2013

◎国 家 美国

◎类 别 喜剧/剧情/爱情

◎语 言 英语

◎字 幕 N/A

◎IMDB评分 7.1/10 from 23,784 users

◎文件格式 x264 + DD5.1

◎视频尺寸 1920 x 804

◎文件大小 1CD 8.40 GiB

◎片 长 1h 26mn

◎导 演 约瑟夫·高登-莱维特 Joseph Gordon-Levitt

◎主 演 约瑟夫·高登-莱维特 Joseph Gordon-Levitt ....Don Jon

斯嘉丽·约翰逊 Scarlett Johansson ....Barbara

朱丽安·摩尔 Julianne Moore ....Esther

托尼·丹扎 Tony Danza ....Jon Sr.

格伦妮·海德利 Glenne Headly ....Angela

布丽·拉尔森 Brie Larson

罗伯·布朗 Rob Brown ....Bobby

杰瑞米·卢克 Jeremy Luke ....Danny (as Jeremy Luc)

伊塔莉·里奇 Italia Ricci ....Gina

林赛·布罗德 Lindsey Broad ....Lauren

Amanda Perez ....Lisa

Sarah Dumont ....Sequins

Sloane Avery ....Patricia

Loanne Bishop ....Barbara's Mom

Arin Babaian ....Bartender

Arielle Reitsma

查宁·塔图姆 Channing Tatum ....Movie Star

安妮·海瑟薇 Anne Hathaway ....Movie Star

Eileen Ayan ....Club goer / night school student

Felicia Dillon ....Hot Russell

Russell Fung ....College Student

小库珀·古丁 Cuba Gooding Jr. ....Movie Star

Madalein Jackson

Antoinette Nikprelaj

Eva Mah ....Waitress

Rizwan Manji ....Teacher

Tanya Mityushina ....Dimepiece

Rebecca O'Donahue ....Dee Dee

Tiffany Scott ....Hostess

Mariah Quintana ....Princess Party Hostess (rumored)

Jasper Salon ....Club Goer

Alyssa Szarkowski

Nina Varano ....Club Girl

Maydelle Clarice ....College Student (uncredited)

Daniel D. Houy ....Bookstore patron (uncredited)

Iris Wasabi ....Theater Patron (uncredited)

Marc Wilkinson ....College Student (uncredited)

Paul Ben-Victor ....The Priest

Jen Mears ....Waitress

Arayna Eison ....Bee Bee

情圣囧色夫剧情介绍:

  囧瑟夫在片中饰演一位"当代唐璜",当然这是个古典文艺的称呼,他其实就是个沉迷声色的性瘾患者。如果你看过法斯宾德在《羞耻》中悲由心生的性瘾煎熬,那么囧瑟夫则完全是充满正能量的阳光色情狂。他生命中最重要的东西如下:健身、公寓、飙车、家人、教堂、哥们、美女、毛片。在遇到斯嘉丽·约翰逊之前,毛片是这位奇男子的精神归宿,而女神的出现,给了他洗心革面的激情。

一句话评论

  约瑟夫·高登-莱维特带来的不仅是一部表演出色的电影,更是一部好看好笑的爱情片。

--《The Wrap》

  约瑟夫·高登-莱维特塑造的角色充满生活趣味又有着少男怀春的心酸。适度的幽默感和勇气令角色充满魅力。

--ComingSoon

  高登-莱维特证明了他是一位天生的电影人,精妙地将主角的内疚感,与像《梦之安魂曲》一样组织起来的色情片段,一同编排在一起。

--《娱乐周刊》

◎拍摄花絮

·本片是约瑟夫·高登-莱维特的导演处女作。

----------------------------------

Format : Matroska

Format version : Version 4 / Version 2

File size : 8.40 GiB

Duration : 1h 26mn

Overall bit rate : 13.9 Mbps

Encoded date : UTC 2013-12-18 02:19:02

Writing application : mkvmerge v6.6.0 ('The Edge Of The In Between') built on Dec 1 2013 17:55:00

Writing library : libebml v1.3.0 + libmatroska v1.4.1

Video

ID : 1

Format : AVC

Format/Info : Advanced Video Codec

Format profile : [email protected]

Format settings, CABAC : Yes

Format settings, ReFrames : 5 frames

Codec ID : V_MPEG4/ISO/AVC

Duration : 1h 26mn

Bit rate : 13.3 Mbps

Width : 1 920 pixels

Height : 804 pixels

Display aspect ratio : 2.40:1

Frame rate mode : Constant

Frame rate : 25.000 fps

Color space : YUV

Chroma subsampling : 4:2:0

Bit depth : 8 bits

Scan type : Progressive

Bits/(Pixel*Frame) : 0.345

Stream size : 7.84 GiB (93%)

Writing library : x264 core 138 r2358 9e941d1

Audio

ID : 2

Format : AC-3

Format/Info : Audio Coding 3

Mode extension : CM (complete main)

Format settings, Endianness : Big

Codec ID : A_AC3

Duration : 1h 26mn

Bit rate mode : Constant

Bit rate : 640 Kbps

Channel(s) : 6 channels

Channel positions : Front: L C R, Side: L R, LFE

Sampling rate : 48.0 KHz

Bit depth : 16 bits

Compression mode : Lossy

Stream size : 395 MiB (5%)

Default : Yes

Forced : No

《情圣囧色夫》海报

《情圣囧色夫》剧照-1

《情圣囧色夫》剧照-2

《情圣囧色夫》剧照-3

《情圣囧色夫》剧照-4

情圣囧色夫电影下载:

提示:由于该资源受到用户投诉或版权方要求,已经停止链接分享

情圣囧色夫电影评论

更多精彩电影