当前位置:
首页 » 动作片 » 我,弗兰肯斯坦

我,弗兰肯斯坦/妖魔行者/科学怪人:屠魔大战 I,Frankenstein.2014.HDScr.x264.AC3-SmY 中文

《我,弗兰肯斯坦》海报

【影片原名】I,Frankenstein

【中文译名】我,弗兰肯斯坦/妖魔行者(港)/科学怪人:屠魔大战(台)

【出品公司】HopscotchFeatures

【出品年代】2014 年

【上映日期】2014年1月24日 美国

【影片级别】Argentina:13 |Canada:PG (British Columbia) | France:U (with warning) | Germany:12 |Hungary:16

【IMDB评分】5.5/10 (6,327votes)

【国 家】美国/澳大利亚

【类 别】动作/奇幻/科幻

【导 演】斯图尔特·比蒂 StuartBeattie

【主 演】艾伦·艾克哈特 Aaron Eckhart ....Adam

伊冯娜·斯特拉霍夫斯基 YvonneStrahovski ....Terra

杰·科特尼 Jai Courtney

比尔·奈伊 BillNighy

阿登·杨 Aden Young ....Dr. Frankenstein

凯特琳·斯塔西 CaitlinStasey ....Keziah

米兰达·奥图 Miranda Otto

凯文·纪留克斯 KevinGrevioux ....Dekar

丹尼兹·阿克丹尼兹 DenizAkdeniz ....Barachel

克里斯·彭 Chris Pang ....Levi

SocratisOtto

戈兰·克鲁特 Goran D'Kluet ....Rekem

Virginie LeBrun ....Elizabeth Frankenstein

SteveMouzakis ....Helek

MaheshJadu ....Ophir

我,弗兰肯斯坦剧情介绍:

Frankenstein's creature findshimself caught in an all-out, centuries old war between two immortalclans.

一句话评论

  非常无趣、无精打采、毫无亮点而且毫无意义的超自然动作片,让人更渴望看比较老练的同类题材的"黑夜传说"系列。(评分:10/100)--《综艺》

  真正的人造怪物就是《我,弗兰肯斯坦》这部电影本身,一部荒谬地把宗教象征和古板的神话东拼西凑成一个设置于电脑特效试验室中的"正义对抗邪恶"的老套故事。(评分:25/100)--《多伦多明星报》

◎幕后制作

  《我,弗兰肯斯坦》与《绅士大联盟》(League Of ExtraordinaryGentlemen)类似,也是把一群本来生活在不同文艺作品里的经典人物集中到了一个故事里,所不同的是,《我,弗兰肯斯坦》里集合的全都是怪物。除了标题人物《科学怪人》中的"弗兰肯斯坦"外,还有《钟楼怪人》里的"卡西莫多"(theHunchback of Notre Dame),《隐身人》里的"隐身人"(the InvisibleMan),《吸血鬼》里的"德古拉"(Dracula),《化身博士》里的"海德先生"(Dr. Jekyll/Mr. Hyde)等等。

郑重声明:

  本站提供的所有影视作品均是在网上搜集,任何涉及商业盈利目的均不得使用,否则产生的一切后果将由您自己承担!本站将不对本站的任何内容负任何法律责任!该下载内容仅做宽带测试使用,请在下载后24小时内删除。请购买正版!

Format : Matroska

File size : 1.53 GiB

Duration : 1h 21mn

Overall bit rate : 2 693 Kbps

Encoded date : UTC 2010-02-22 21:41:31

Writing application : mkvmerge v5.9.0 ('On The Loose') built on Dec 9 2012 15:37:01

Writing library : libebml v1.3.0 + libmatroska v1.4.0

Video #1

ID : 1

Format : AVC

Format/Info : Advanced Video Codec

Format profile : [email protected]

Format settings, CABAC : Yes

Format settings, ReFrames : 4 frames

Muxing mode : Container [email protected]

Codec ID : V_MPEG4/ISO/AVC

Duration : 1h 21mn

Bit rate : 2 448 Kbps

Nominal bit rate : 2 500 Kbps

Width : 720 pixels

Height : 320 pixels

Display aspect ratio : 2.25:1

Frame rate : 29.970 fps

Resolution : 8 bits

Colorimetry : 4:2:0

Scan type : Progressive

Bits/(Pixel*Frame) : 0.354

Stream size : 1.39 GiB (91%)

Writing library : x264 core 116 r2074 2641b9e

Audio #2

ID : 2

Format : AC-3

Format/Info : Audio Coding 3

Codec ID : A_AC3

Duration : 1h 21mn

Bit rate mode : Constant

Bit rate : 192 Kbps

Channel(s) : 2 channels

Channel positions : L R

Sampling rate : 48.0 KHz

Stream size : 112 MiB (7%)

我,弗兰肯斯坦影片截图:

我,弗兰肯斯坦电影下载:

提示:由于该资源受到用户投诉或版权方要求,已经停止链接分享

我,弗兰肯斯坦电影评论

更多精彩电影