当前位置:
首页 » 惊悚片 » 爱情是狗娘

【爱情是狗娘】【BD-720P.MKV】【中文字幕】【TOP250】

《爱情是狗娘》海报

◎中文 名 爱情是狗娘

◎片 名 Amores perros

◎年 代 2000

◎国 家 墨西哥

◎类 别 惊悚/剧情

◎语 言 西班牙语

◎字 幕 中文

◎IMDB评分 8.2/10 (61,933 votes)Top 250: #166

◎文件格式 X264 + AC3

◎视频尺寸 1280 x 720

◎文件大小 1CD 2.73G

◎片 长 02:27:27

◎导 演 伊纳里多Alejandro Gonzalez Inarritu

◎主 演 瓦妮萨·布奇Vanessa Bauche

伊米利奥·埃切瓦里亚Emilio Echevarria

Gael Garcia Bernal

爱情是狗娘剧情介绍:

  影片由三个不同的故事组成,故事中的主人公与狗之间的关系也正是他们自身命运的象征。影片的开始就是墨西哥市内精彩的飞车追逐,男孩载着一只黑狗在路上飙车,接着就是一场迎面而来的撞击,男孩这边人仰狗翻,对面来车中的美女血流如注,一旁的拾荒老者静静地看着这一切,又静静地离开--

  第一个故事里男孩因为爱上怀孕的嫂嫂,想要带她离开白天在超市上班晚上抢超市的哥哥,于是带着自己的爱犬参加斗狗比赛;

  第二个故事中的美女是个名模,与离开妻子的男友同居,在爱犬落入陷阱之后,发现自己也被车祸困在车内;

  最后一个故事,老者以前曾是游击队员,因无意中捡到了那只奄奄一息的黑狗竟然与自己失散多年的女儿重逢。

■幕后

  本片导演伊纳里多1963年生于墨西哥城,今年37岁,早在10年前就是墨西哥知名摇滚乐电台WFM.的DJ兼制作人,1991年他成立了自己的电影制作公司Zeta Film,执导的首部作品是一部中等长度的电视剧《After the Money》,本片是伊纳里多的第一部电影长片。

  伊纳里多凭借自己对音乐的娴熟掌握,影片的运镜及叙事方式就像一场剧情完整的MTV,再加上各段人物交叠出现意外相遇,把整个墨西哥市的紊乱活力通过这些人的生命选择精彩传达。

  伊纳里多说,他不是用头脑拍这部片子,靠的只有直觉和本能,就像片中的斗犬一样,相信自己,准确出击。他并不想在片中对这些人物表达任何同情或悲悯,对他来说,政治正确绝对是"过时的温情主义产品",他就是要让这些角色在极好与极坏之间摆荡,因为当初这些角色也是这么跃出纸上与他来往沟通的。墨西哥市有2100万人口,但是通过本片,观众看到的不是黝黑的画面,悲情的回忆,或者喋喋不休的叮咛抱怨,它只是说了一个好听的故事,发生在墨西哥市。

  影片曾获本年度戛纳电影节影评人周大奖,2000年东京电影节最佳影片和最佳导演两项大奖,并与《卧虎藏龙》等片一起获第58届金球奖最佳外语片提名。

  影片从某种程度上说可以算是墨西哥版的《低级小说》,多线发展的三段式故事,交错的人际与狗际关系,还有律动的配乐与画面,实在很难让人相信这是一位新导演的作品,而且片长长达153分钟。

General

Format : Matroska

File size : 2.73 GiB

Duration : 2h 34mn

Overall bit rate : 2 535 Kbps

Encoded date : UTC 2010-11-19 14:10:58

Writing application : mkvmerge v3.4.0 ('Rapunzel') 编译于 May 15 2010 09:38:20

Writing library : libebml v0.8.0 + libmatroska v0.9.0

Video #1

ID : 1

Format : AVC

Format/Info : Advanced Video Codec

Format profile : [email protected]

Format settings, CABAC : Yes

Format settings, ReFrames : 6 frames

Muxing mode : Container [email protected]

Codec ID : V_MPEG4/ISO/AVC

Duration : 2h 34mn

Bit rate : 2 037 Kbps

Nominal bit rate : 2 089 Kbps

Width : 1 280 pixels

Height : 720 pixels

Display aspect ratio : 16:9

Frame rate : 23.976 fps

Resolution : 8 bits

Colorimetry : 4:2:0

Scan type : Progressive

Bits/(Pixel*Frame) : 0.092

Stream size : 2.19 GiB (80%)

Writing library : x264 core 98 r1649 c54c47d

Encoding settings : cabac=1 / ref=6 / deblock=1:-3:-3 / analyse=0x3:0x113 / me=umh / subme=7 / psy=1 / psy_rd=1.00:0.00 / mixed_ref=1 / me_range=20 / chroma_me=1 / trellis=2 / 8x8dct=1 / cqm=0 / deadzone=21,11 / fast_pskip=1 / chroma_qp_offset=-2 / threads=6 / sliced_threads=0 / nr=0 / decimate=1 / interlaced=0 / constrained_intra=0 / bframes=8 / b_pyramid=0 / b_adapt=1 / b_bias=0 / direct=3 / weightb=1 / weightp=2 / keyint=250 / keyint_min=25 / scenecut=40 / intra_refresh=0 / rc_lookahead=40 / rc=2pass / mbtree=1 / bitrate=2089 / ratetol=1.0 / qcomp=0.60 / qpmin=10 / qpmax=51 / qpstep=4 / cplxblur=20.0 / qblur=0.5 / ip_ratio=1.40 / aq=1:1.00

Language : English

Audio #2

ID : 2

Format : AC-3

Format/Info : Audio Coding 3

Codec ID : A_AC3

Duration : 2h 34mn

Bit rate mode : Constant

Bit rate : 448 Kbps

Channel(s) : 6 channels

Channel positions : Front: L C R, Surround: L R, LFE

Sampling rate : 48.0 KHz

Stream size : 494 MiB (18%)

Text #3

ID : 3

Format : UTF-8

Codec ID : S_TEXT/UTF8

Codec ID/Info : UTF-8 Plain Text

Title : 中文

爱情是狗娘电影下载:

提示:推荐使用BitComet、Utorrent、QQ旋风、迅雷下载爱情是狗娘。喜欢在线看的朋友可以把种子上传到百度网盘、115网盘,离线下载完手机电脑都可以在线看。

爱情是狗娘电影评论

更多精彩电影