当前位置:
首页 » 喜剧片 » 意外的恋爱时光

意外的恋爱时光 Love Speaks.2013.DVDScr.x264.AC3-SmY 中英

《意外的恋爱时光》海报

◎译 名 意外的恋爱时光

◎片 名 Love Speaks

◎年 代 2013

◎国 家 中国大陆

◎类 别 喜剧 / 爱情

◎语 言 汉语普通话

◎字 幕 中文/英文

◎IMDB评分 6.1/10 from 34 users

◎文件格式 x264 + AC3

◎视频尺寸 720x304

◎文件大小 1.62 GB

◎片 长 1h 38mn

◎导 演 黎志 Zhi Li

◎主 演 房祖名 Jaycee Chan ....周同

郭采洁 Amber Kuo ....王乐晴

于莎莎 Yu Sha Sha

钱入富 Ru-fu Qian

康恩赫 Enhe Kang

意外的恋爱时光剧情介绍:

  单身女白领王乐晴(郭采洁 饰)对生活期望很高,希望早日与男友邵东(高圣远饰)走上结婚的红毯。但卲东是个工作狂,常常因工作忽视了自己的存在,乐晴不得已主动向男友求婚,并请周同(房祖名饰)拍摄她的求爱过程。搞视频工作室的周同愉快地接受了聘请,随乐晴踏上了求爱旅程,谁知一路上意外频发,囧事不断。随着同甘共苦的行程加码,周同对乐晴产生了异样的感觉。大龄剩女李晓玲(于莎莎饰)是乐晴的闺蜜,平日里嘴上没有把门儿的,属于典型的刀子嘴豆腐心,她以乐晴的爱情导师自居,对乐晴找对象看的比自己的事都重要,但她将怎样面对乐晴的婚变呢......

Format : Matroska

File size : 1.62 GiB

Duration : 1h 38mn

Overall bit rate : 2 352 Kbps

Encoded date : UTC 2010-02-22 21:41:31

Writing application : mkvmerge v5.9.0 ('On The Loose') built on Dec 9 2012 15:37:01

Writing library : libebml v1.3.0 + libmatroska v1.4.0

Video #1

ID : 1

Format : AVC

Format/Info : Advanced Video Codec

Format profile : [email protected]

Format settings, CABAC : Yes

Format settings, ReFrames : 4 frames

Muxing mode : Header stripping

Codec ID : V_MPEG4/ISO/AVC

Duration : 1h 38mn

Bit rate : 2 000 Kbps

Width : 720 pixels

Height : 304 pixels

Display aspect ratio : 2.35:1

Frame rate : 29.970 fps

Color space : YUV

Chroma subsampling : 4:2:0

Bit depth : 8 bits

Scan type : Progressive

Bits/(Pixel*Frame) : 0.305

Stream size : 1.32 GiB (82%)

Writing library : x264 core 116 r2074 2641b9e

Audio #2

ID : 2

Format : AC-3

Format/Info : Audio Coding 3

Mode extension : CM (complete main)

Muxing mode : Header stripping

Codec ID : A_AC3

Duration : 1h 38mn

Bit rate mode : Constant

Bit rate : 384 Kbps

Channel(s) : 6 channels

Channel positions : Front: L C R, Side: L R, LFE

Sampling rate : 48.0 KHz

Bit depth : 16 bits

Compression mode : Lossy

Stream size : 271 MiB (16%)

意外的恋爱时光影片截图:

《意外的恋爱时光》剧照-1

《意外的恋爱时光》剧照-2

《意外的恋爱时光》剧照-3

《意外的恋爱时光》剧照-4

意外的恋爱时光电影下载:

提示:由于该资源受到用户投诉或版权方要求,已经停止链接分享

意外的恋爱时光电影评论

更多精彩电影