当前位置:
首页 » 喜剧片 » 我的男男男男朋友

我的男男男男朋友 My Boy 4 Friends.2013.1080p.WEB-DL.x264.AAC-SmY 中文

◎译 名 我的男男男男朋友

◎片 名 My Boy 4 Friends

◎年 代 2013

◎国 家 中国大陆

◎类 别 喜剧 / 爱情

◎语 言 汉语普通话

◎字 幕 中文

◎IMDB评分 N/A

◎IMDB链接 N/A

◎文件格式 x264 +AAC

◎视频尺寸 1920 x 808

◎文件大小 1.60G

◎片 长 95min

◎导 演 赵崇基 Sung Kee Chiu

◎主 演 谢娜 Na Xie ....张雯婷

汪东城 Dongcheng Wang ....郑浩

胡兵 Bing Hu ....王永成

刘令飞 Ling-fei Liu ....陈翰

李承铉 Seung-hyun Lee ....许博文

谢依霖 Sie Yi-Lin ....小欧

何晶晶 Jing-jing He

翁艳 Yan Weng

印小天 Xiaotian Yin

我的男男男男朋友剧情介绍:

  谢雯婷(谢娜饰)在北京打拼多年终于当上了咖啡店店长,攒钱买房准备与相恋多年的男友结婚,却惨遭对方劈腿,"裸恋"十年后沦为奔三"剩女"。从此她决心对爱情分散投资,开始周旋于四个类型迥异的男人(汪东城胡兵,李承炫,刘令飞)之间。四个男人都各有魅力,却也都各有风险。究竟谁是回春的桃花运?谁又是伤心的桃花劫?也许幸福,只在于选择

File size : 1.60 GiB

Duration : 1h 35mn

Overall bit rate : 2 407 Kbps

Video

Format : AVC

Format/Info : Advanced Video Codec

Format profile : [email protected]

Format settings, CABAC : Yes

Format settings, ReFrames : 4 frames

Codec ID : 7

Duration : 1h 35mn

Bit rate : 2 328 Kbps

Width : 1 920 pixels

Height : 808 pixels

Display aspect ratio : 2.40:1

Frame rate mode : Constant

Frame rate : 24.000 fps

Color space : YUV

Chroma subsampling : 4:2:0

Bit depth : 8 bits

Scan type : Progressive

Bits/(Pixel*Frame) : 0.063

Stream size : 1.55 GiB (97%)

Writing library : x264 core 128

Audio

Format : AAC

Format/Info : Advanced Audio Codec

Format profile : HE-AAC / LC

Codec ID : 10

Duration : 1h 40mn

Bit rate : 70.7 Kbps

Channel(s) : 2 channels

Channel positions : Front: L R

Sampling rate : 48.0 KHz / 24.0 KHz

Compression mode : Lossy

Stream size : 50.8 MiB (3%)

我的男男男男朋友影片截图:

《我的男男男男朋友》海报

《我的男男男男朋友》剧照-1

《我的男男男男朋友》剧照-2

我的男男男男朋友电影下载:

提示:推荐使用BitComet、Utorrent、QQ旋风、迅雷下载我的男男男男朋友。喜欢在线看的朋友可以把种子上传到百度网盘、115网盘,离线下载完手机电脑都可以在线看。

我的男男男男朋友电影评论

更多精彩电影