当前位置:
首页 » 爱情片 » 我的前女友

我的前女友.Our.Ex.Girlfriend.2013.720p.HDRip.H264-CiNERO

《我的前女友》海报

《我的前女友》剧照-1

【译名】我的前女友

【片名】Our Ex Girlfriend

【小组】CiNERO

【年代】2013

【国家】韩国

【类型】爱情

【片源】HDTV

【视频】1280×720|x264| 3846 Kbps

【音频】韩语|AAC| 96Kbps

【体积】2.45 GB| 1CD

【时间】88 mins

【字幕】N/A

【IMDB评分】N/A

【IMDB链接】N/A

【导演】Lee Kwang-ho

【主演】Joo Yeong-ho Oh Yeon-jae

我的前女友影片截图:

Complete name : Our.Ex.Girlfriend.2013.720p.HDRip.H264-CiNERO.mp4

Format : MPEG-4

Format profile : JVT

Codec ID : avc1

File size : 2.45 GiB

Duration : 1h 28mn

Overall bit rate mode : Variable

Overall bit rate : 3 949 Kbps

Encoded date : UTC 2013-08-11 16:05:54

Tagged date : UTC 2013-08-11 16:05:54

Video #3

ID : 3

Format : AVC

Format/Info : Advanced Video Codec

Format profile : [email protected]

Format settings, CABAC : Yes

Format settings, ReFrames : 2 frames

Format settings, GOP : M=1, N=30

Codec ID : avc1

Codec ID/Info : Advanced Video Coding

Duration : 1h 28mn

Bit rate mode : Variable

Bit rate : 3 846 Kbps

Maximum bit rate : 5 250 Kbps

Width : 1 280 pixels

Height : 720 pixels

Display aspect ratio : 16:9

Frame rate mode : Constant

Frame rate : 29.970 fps

Color space : YUV

Chroma subsampling : 4:2:0

Bit depth : 8 bits

Scan type : Progressive

Bits/(Pixel*Frame) : 0.139

Stream size : 2.39 GiB (97%)

Language : English

Encoded date : UTC 2013-08-11 16:05:54

Tagged date : UTC 2013-08-11 16:05:54

Audio #4

ID : 4

Format : AAC

Format/Info : Advanced Audio Codec

Format profile : LC

Codec ID : 40

Duration : 1h 28mn

Bit rate mode : Variable

Bit rate : 96.0 Kbps

Maximum bit rate : 101 Kbps

Channel count : 2 channels

Channel positions : Front: L R

Sampling rate : 48.0 KHz

Compression mode : Lossy

Stream size : 61.1 MiB (2%)

Language : English

Encoded date : UTC 2013-08-11 16:05:54

Tagged date : UTC 2013-08-11 16:05:54

我的前女友电影下载:

提示:由于该资源受到用户投诉或版权方要求,已经停止链接分享

我的前女友电影评论

更多精彩电影