当前位置:
首页 » 剧情片 » 偷情家族

偷情家族 Baramnan.Gajok.2003.XviD.AC3.2CD-WAF

《偷情家族》海报

【译名】偷情家族 | 风流家族 | 好律师的太太

【片名】A Good Lawyer's Wife | Baramnan Gajok

【小组】WAF

【年代】 2003

【国家】韩国

【类型】剧情

【片源】DVD

【视频】800×352 |XviD |1336Kbps

【音频】韩语|AC3 |448Kbps

【体积】1.37 GB| 2CD

【时间】106 mins

【字幕】中文 | 英文

【IMDB评分】6.7/10 (843 votes)

【导演】林常树

【主演】黄政民 / 奉太奎 / 文素丽 / 尹汝贞

偷情家族剧情介绍:

  好珍(文素丽 饰)嫁给了律师丈夫勇杰(黄政民 饰)后,便放弃了舞蹈事业,在家悉心照顾养子与患病多年的公公。日子在平淡中过去了几年,勇杰常常忙于工作,还经常去探望自己的旧情人妍,与妻子儿子相处的时间很少。

  好珍已经厌倦了寂寞的生活,很久没有与丈夫做爱的她感觉自己变得性冷淡了。出于需要,她有了偷情的念头。她勾引了邻居的男孩并与之发生了关系。

  勇杰与妍也是保持着性关系,虽然对妍的爱意不多,直到妍怀上了自己的孩子,勇杰才更多时间留在女友身边。好珍夫妇都不知道,她的婆婆也同时有了偷情的踪迹。

General

Complete name : Baramnan.Gajok.2003.XviD.AC3.CD2-WAF.avi

Format : AVI

Format/Info : Audio Video Interleave

File size : 700 MiB

Duration : 54mn 36s

Overall bit rate : 1 793 Kbps

Writing application : Nandub v1.0rc2

Writing library : Nandub build 1852/release

Video #0

ID : 0

Format : MPEG-4 Visual

Format profile : [email protected]

Format settings, BVOP : 2

Format settings, QPel : No

Format settings, GMC : No warppoints

Format settings, Matrix : Default (MPEG)

Codec ID : XVID

Codec ID/Hint : XviD

Duration : 54mn 36s

Bit rate : 1 336 Kbps

Width : 800 pixels

Height : 352 pixels

Display aspect ratio : 2.25:1

Frame rate : 23.976 fps

Color space : YUV

Chroma subsampling : 4:2:0

Bit depth : 8 bits

Scan type : Progressive

Compression mode : Lossy

Bits/(Pixel*Frame) : 0.198

Stream size : 522 MiB (74%)

Writing library : XviD 0.0.09 (UTC 2003-03-25)

Audio #1

ID : 1

Format : AC-3

Format/Info : Audio Coding 3

Mode extension : CM (complete main)

Format settings, Endianness : Big

Codec ID : 2000

Duration : 54mn 36s

Bit rate mode : Constant

Bit rate : 448 Kbps

Channel count : 6 channels

Channel positions : Front: L C R, Side: L R, LFE

Sampling rate : 48.0 KHz

Bit depth : 16 bits

Compression mode : Lossy

Delay relative to video : 21ms

Stream size : 175 MiB (25%)

Alignment : Split accross interleaves

Interleave, duration : 42 ms (1.00 video frame)

Interleave, preload duration : 500 ms

偷情家族影片截图:

《偷情家族》剧照-1

《偷情家族》剧照-2

《偷情家族》剧照-3

《偷情家族》剧照-4

《偷情家族》剧照-5

《偷情家族》剧照-6

《偷情家族》剧照-7

《偷情家族》剧照-8

《偷情家族》剧照-9

偷情家族电影下载:

提示:由于该资源受到用户投诉或版权方要求,已经停止链接分享

偷情家族电影评论

更多精彩电影