当前位置:
首页 » 动作片 » 孤独幸存者

孤独幸存者/孤独的生还者 Lone.Survivor.2013.HDRip.720p.x264.AC3-SmY 简繁

《孤独幸存者》海报

◎译 名 孤独幸存者/孤独的生还者/红翼行动(台)

◎片 名 Lone Survivor/El único superviviente/Du sang et des larmes

◎年 代 2013

◎国 家 美国

◎类 别 动作/传记/剧情/惊悚/战争

◎语 言 英语

◎字 幕 简繁

◎IMDB评分 7.9/10 from 26,348 users

◎文件格式 X264 + AC3

◎视频尺寸 1280 x 544

◎文件大小 1CD 2.03 GiB

◎片 长 2h 0mn

◎导 演 彼得·博格 Peter Berg

◎主 演 马克·沃尔伯格 Mark Wahlberg ....Marcus Luttrell

艾瑞克·巴纳 Eric Bana ....Lt. Cmdr. Erik S. Kristensen

泰勒·克奇 Taylor Kitsch ....Mike Murphy

埃米尔·赫斯基 Emile Hirsch ....Danny Dietz

本·福斯特 Ben Foster ....Matt Axelson

Sammy Sheik ....Taraq

亚历山大·路德韦格 Alexander Ludwig ....Shane Patton

Scott Elrod ....Peter Musselman

阿里·苏莱曼 Ali Suliman ....Gulab

Eric Steinig ....SEAL Lt.

Corey Large ....SEAL Captain Kenney

马修·佩吉 Matthew Page ....Army Intel Guy

弗兰克·鲍尔斯 Frank Powers ....Musselman SEAL

Dan Bilzerian ....Dan Healy

Michael Salman ....Voice Actor

Tailor Murray ....Navy Seal

Rich Ting ....James Suh

Josh Berry ....Communications Seal Taylor

Yousuf Azami ....Ahmed Shahd

Sterling Jones ....Comm's Guy

Todd Bethke ....Gulab,s Elder

Robert H. Doudell ....Gulab Elder Leader

Nicholas Patel ....Goat Boy

Crystal Miller ....Afghan Widow

杰瑞·费拉拉 Jerry Ferrara ....Sgt. Hasslert

Rohan Chand ....Gulab's Young Son

Anthony Reynolds ....Navy Seal

Samuel Cloud ....JAG

Scott Esquibel ....Gulab Villiger (uncredited)

Jahan Khalili ....Gulab Villager (uncredited)

Ric Arthur ....Crew Chief

David H. Shepard ....CJSOTF Commander

Justin Tade ....CJSOTF Marine

Daniel Arroyo ....Teenage Goat Boy

Anthony McKenzie ....TOC Sr. Air Officer

Brian Call ....TOC SEAL

Hillel Michael Shamam ....Angry Villager

Gregory Rockwood ....Chinook Pilot No. 1

Ryan Kay ....Chinook Pilot No. 2

Patrick Griffin ....Chinook Co-Pilot

Jason Riggins ....50 Cal Gunner

John Quintana ....Lt. Edwards

Zarin Rahimi ....Goat Man

Ishmael Antonio ....Doctor

Perparim 'Peter' Bici ....Communication SEAL Perry

Henry Penzi ....Villager

Robert Loerke ....Captain Jacoby

Kurt Carlson ....Captain Lovas

Daniel Fulcoly ....Lt. Andrews

Michael P. Herrmann ....Wallace

Paul Craig ....'EOD' Paul

Zabiullah Mirzai ....Zabi

John Hocker ....Hocker

Edmund Blanchet ....PJ No. 1

Jim Cusic ....PJ No. 2

Trey Holland ....Navy Seal (uncredited)

孤独幸存者剧情介绍:

  《孤独的幸存者》根据海豹突击队队员MarcusLuttrell的真实经历改编,2005年,他和队友奉命执行秘密行动,准备射杀一面那个恐怖组织领导,但在阿富汗兴都库什山区遭到了基地组织塔利班武装的埋伏,Marcus等人不得不为生存而战,最终只有Marcus一人幸存,这也正式电影片名的由来。

Format : Matroska

File size : 2.03 GiB

Duration : 2h 0mn

Overall bit rate : 2 405 Kbps

Encoded date : UTC 2010-02-22 21:41:31

Writing application : mkvmerge v5.9.0 ('On The Loose') built on Dec 9 2012 15:37:01

Writing library : libebml v1.3.0 + libmatroska v1.4.0

Video #1

ID : 1

Format : AVC

Format/Info : Advanced Video Codec

Format profile : [email protected]

Format settings, CABAC : Yes

Format settings, ReFrames : 4 frames

Muxing mode : Container [email protected]

Codec ID : V_MPEG4/ISO/AVC

Duration : 2h 0mn

Bit rate : 1 909 Kbps

Nominal bit rate : 2 000 Kbps

Width : 1 280 pixels

Height : 544 pixels

Display aspect ratio : 2.35:1

Frame rate : 23.976 fps

Resolution : 8 bits

Colorimetry : 4:2:0

Scan type : Progressive

Bits/(Pixel*Frame) : 0.114

Stream size : 1.61 GiB (79%)

Writing library : x264 core 116 r2074 2641b9e

Audio #2

ID : 2

Format : AC-3

Format/Info : Audio Coding 3

Codec ID : A_AC3

Duration : 2h 0mn

Bit rate mode : Constant

Bit rate : 448 Kbps

Channel(s) : 6 channels

Channel positions : Front: L C R, Surround: L R, LFE

Sampling rate : 48.0 KHz

Stream size : 387 MiB (19%)

Title : English AC-3 (48.0 KHz; 448 kbps; 6 ch; 16 bits)

Text #3

ID : 3

Format : SSA

Codec ID : S_TEXT/SSA

Codec ID/Info : Sub Station Alpha

Text #4

ID : 4

Format : SSA

Codec ID : S_TEXT/SSA

Codec ID/Info : Sub Station Alpha

孤独幸存者影片截图:

孤独幸存者电影下载:

提示:由于该资源受到用户投诉或版权方要求,已经停止链接分享

孤独幸存者电影评论

更多精彩电影