当前位置:
首页 » 剧情片 » 变役

扫毒/掃毒/变役 The White Storm 2013.1080p.WEB-DL.x264.AAC-SmY 中文

《变役》海报

◎译 名 扫.毒/掃.毒/变役

◎片 名 The White Storm

◎年 代 2013

◎国 家 中国大陆 / 香港

◎类 别 剧情/ 动作/悬疑/犯罪

◎语 言 汉语普通话

◎字 幕 中文

◎IMDB评分 Ratings: 7.4/10 from 81 users

◎文件格式 x264 + AAC

◎视频尺寸 1920x816

◎文件大小 1CD 2.26 GB

◎片 长 2h 13mn

◎导 演 刘存明 Cunming Liu

◎主 演 刘青云 Ching Wan Lau ....马昊天

古天乐 Louis Koo ....苏建秋

张家辉 Nick Cheung ....张子伟

卢海鹏 Hoi-Pang Lo ....八面佛

宝儿 Poy ....缅娜

袁泉 Quan Yuan ....建秋妻子

江若琳 Elanne kwong ....机场售票员

吴廷烨 Berg Ng ....益哥

卢惠光 Ken Lo ....Booby

吴岱融 Doi-yung Ng ....警署高层(行动)

罗兰 Lan Law ....子伟母亲

林国斌 Ben Lam ....黑柴

释延能 Yanneng Shi ....通缉犯

变役剧情介绍:

  从小一起长大的好兄弟马昊天(刘青云 饰)、张子伟(张家辉饰)和苏建秋(古天乐饰)共同效力于警队扫毒科。在一次临时改变计划的行动后,建秋因为卧底身份不能与妻子(袁泉饰)过正常生活而心生退意,但在阿天与子伟的劝说下,三人决定进行最后一搏。建秋跟着毒贩老大黑柴(林国斌饰)前往泰国与毒贩Bobby(卢惠光饰)进行对接,目的是见到行动的最大目标"八面佛"(卢海鹏饰),阿天则和子伟以及同事阿益(吴廷烨饰)进行跟进。由于泰国警方的配合不力导致建秋身份暴露,虽然建秋答应阿天继续把交易完成,但失败的导火索已经埋下。交易当天警方几乎全军覆没,危急之时阿天挟持了八面佛的女儿缅娜(宝儿饰)准备逃命,八面佛承诺只要还回缅娜阿天可以带走建秋和子伟中的一个,没被选中的则要被推进鳄鱼池,面对抉择阿天及进退两难--

File size : 2.26 GiB

Duration : 2h 14mn

Overall bit rate : 2 407 Kbps

Tagging application : Yet Another Metadata Injector for FLV - Version 1.8

Video

Format : AVC

Format/Info : Advanced Video Codec

Format profile : [email protected]

Format settings, CABAC : Yes

Format settings, ReFrames : 4 frames

Muxing mode : Container [email protected]

Duration : 2h 14mn

Bit rate : 2 274 Kbps

Nominal bit rate : 2 328 Kbps

Width : 1 920 pixels

Height : 816 pixels

Display aspect ratio : 2.35:1

Frame rate mode : Variable

Frame rate : 24.000 fps

Resolution : 8 bits

Colorimetry : 4:2:0

Scan type : Progressive

Bits/(Pixel*Frame) : 0.060

Stream size : 2.19 GiB (97%)

Writing library : x264 core 128

Audio

Format : AAC

Format/Info : Advanced Audio Codec

Format version : Version 4

Format profile : LC

Format settings, SBR : Yes

Format settings, PS : No

Duration : 2h 14mn

Bit rate : 70.7 Kbps

Channel(s) : 2 channels

Channel positions : L R

Sampling rate : 48.0 KHz

Resolution : 16 bits

Stream size : 71.5 MiB (3%)

变役影片截图:

变役电影下载:

提示:由于该资源受到用户投诉或版权方要求,已经停止链接分享

变役电影评论

更多精彩电影