当前位置:
首页 » 喜剧片 » 舞者的秘密教学

舞者的秘密教学

舞者的秘密教学剧情介绍:

《舞者的秘密教学》海报

◎片 名 Dancer Kim

◎译 名 舞者的秘密教学

◎时 间 2013-10-02

◎国 家 韩国

◎影片格式 x264+AAC

◎文件大小 1.13 GB

◎片 长 50 min

General

Complete name : Dancer.Kim.2013.720p.HDRip.H264-UBNETWORKS.mp4

Format : MPEG-4

Codec ID : M4V

File size : 1.13 GiB

Duration : 50mn 41s

Overall bit rate mode : Variable

Overall bit rate : 3 185 Kbps

Encoded date : UTC 2013-10-02 11:59:42

Tagged date : UTC 2013-10-02 12:01:03

㏕IM : 00;00;00;00

㏕SC : 30000

㏕SZ : 1001

Video #1

ID : 1

Format : AVC

Format/Info : Advanced Video Codec

Format profile : [email protected]

Format settings, CABAC : No

Format settings, ReFrames : 2 frames

Format settings, GOP : M=1, N=90

Codec ID : avc1

Codec ID/Info : Advanced Video Coding

Duration : 50mn 41s

Source duration : 50mn 41s

Bit rate mode : Variable

Bit rate : 2 993 Kbps

Maximum bit rate : 6 000 Kbps

Width : 1 280 pixels

Height : 720 pixels

Display aspect ratio : 16:9

Frame rate mode : Variable

Frame rate : 29.970 fps

Minimum frame rate : 29.970 fps

Maximum frame rate : 30.000 fps

Standard : NTSC

Color space : YUV

Chroma subsampling : 4:2:0

Bit depth : 8 bits

Scan type : Progressive

Bits/(Pixel*Frame) : 0.108

Stream size : 1.06 GiB (94%)

Source stream size : 1.06 GiB (94%)

Language : English

Encoded date : UTC 2013-10-02 11:59:42

Tagged date : UTC 2013-10-02 11:59:42

mdhd_Duration : 3041305

Audio #2

ID : 2

Format : AAC

Format/Info : Advanced Audio Codec

Format profile : LC

Codec ID : 40

Duration : 50mn 41s

Source duration : 50mn 41s

Bit rate mode : Variable

Bit rate : 192 Kbps

Maximum bit rate : 305 Kbps

Channel count : 2 channels

Channel positions : Front: L R

Sampling rate : 44.1 KHz

Compression mode : Lossy

Stream size : 68.7 MiB (6%)

Source stream size : 68.7 MiB (6%)

Language : English

Encoded date : UTC 2013-10-02 11:59:42

Tagged date : UTC 2013-10-02 11:59:42

mdhd_Duration : 3041350

舞者的秘密教学电影下载:

提示:由于该资源受到用户投诉或版权方要求,已经停止链接分享

舞者的秘密教学电影评论

更多精彩电影