当前位置:
首页 » 喜剧片 » 奇男待嫁

奇男待嫁 Someone Marry Barry.2014.720p.WEB-DL.x264.AC3-SmY 中英

《奇男待嫁》海报

【影片原名】Someone Marry Barry

【中文译名】奇男待嫁

【出品公司】Madrose Productions

【出品年代】2014 年

【上映日期】2014年2月7日 美国

【IMDB评分】7.7/10 (14 votes)

【国 家】美国

【类 别】喜剧

【导 演】Rob Pearlstein

【主 演】泰勒·拉拜 Tyler Labine ....Barry Burke

小达蒙·威亚斯 Damon Wayans Jr. ....Desmond

露茜·彭奇 Lucy Punch ....Melanie Miller

海耶斯·麦克阿瑟 Hayes MacArthur ....Rafe

Thomas Middleditch ....Kurt

Amanda Lund ....Rachel

Frankie Shaw ....Camille (as Frankie Shaw)

Wyatt Oleff ....JT / Son

J. Robin Miller ....Paige

Ginger Gonzaga ....Juanita

艾德·赫尔姆斯 Ed Helms ....Ben

Jerry Minor ....Taxi Driver

劳伦·米勒 Lauren Miller ....Leslie - Speed Dater

Brian Huskey ....Minister Hagen

Scott Whyte ....Angry Man in Audience

奇男待嫁剧情介绍:

Threefriendsplot to get rid of their socially inappropriate friend byfinding him awife, but when he meets a woman just like him, theirproblems double.

Format : Matroska

File size : 2.03 GiB

Duration : 1h 27mn

Overall bit rate : 3 336 Kbps

Encoded date : UTC 2010-02-22 21:41:31

Writing application : mkvmerge v5.9.0 ('On The Loose') built on Dec 9 2012 15:37:01

Writing library : libebml v1.3.0 + libmatroska v1.4.0

Video #1

ID : 1

Format : AVC

Format/Info : Advanced Video Codec

Format profile : [email protected]

Format settings, CABAC : Yes

Format settings, ReFrames : 4 frames

Format settings, GOP : M=4, N=32

Muxing mode : Header stripping

Codec ID : V_MPEG4/ISO/AVC

Duration : 1h 27mn

Bit rate : 3 000 Kbps

Width : 1 280 pixels

Height : 686 pixels

Display aspect ratio : 1.866

Frame rate : 23.976 fps

Color space : YUV

Chroma subsampling : 4:2:0

Bit depth : 8 bits

Scan type : Progressive

Bits/(Pixel*Frame) : 0.142

Stream size : 1.76 GiB (86%)

Writing library : x264 core 116 r2074 2641b9e

Audio #2

ID : 2

Format : AC-3

Format/Info : Audio Coding 3

Mode extension : CM (complete main)

Muxing mode : Header stripping

Codec ID : A_AC3

Duration : 1h 27mn

Bit rate mode : Constant

Bit rate : 384 Kbps

Channel(s) : 6 channels

Channel positions : Front: L C R, Side: L R, LFE

Sampling rate : 48.0 KHz

Bit depth : 16 bits

Compression mode : Lossy

Stream size : 239 MiB (12%)

Title : Audio_Track_PublicHD

Language : English

奇男待嫁影片截图:

奇男待嫁电影下载:

提示:由于该资源受到用户投诉或版权方要求,已经停止链接分享

奇男待嫁电影评论

更多精彩电影