当前位置:
首页 » 喜剧片 » 当铺大乱斗

[2013年] 《当铺大乱斗/Pawn.Shop.Chronicles》 720p.WEB-DL.H264.AC3-SmY 中英(内嵌)1.85G

《当铺大乱斗》海报

◎译 名 当铺大乱斗

◎片 名 Pawn Shop Chronicles

◎年 代 2013

◎国 家 美国

◎类 别 动作/喜剧

◎语 言 英语

◎字 幕 英语

◎文件格式 X264 +AC3

◎视频尺寸 1280x716

◎文件大小 1.85GB

◎片 长 1:52:25

◎导 演 韦恩·克莱默

◎主 演 保罗·沃克/伊利亚·伍德 /诺曼·瑞杜斯/布兰登·费舍 /托马斯·简/文森特·诺费奥 --

当铺大乱斗剧情介绍:

  当铺大乱斗讲述的是一枚丢失的结婚钻戒,将几个猎捕野雁的人们和吸毒者、光头党还有模仿猫王的艺人卷在了一起。

◎当铺大乱斗的影评

重口色情大乱炖,过瘾有余,剧情不足

  和【2杆大烟枪】一样多线并进,不过黑色不足以形容本片,除了重口我实在想不出其他的形容词。长残的保罗沃克,还有一大堆过气明星进来占位打酱油 密室性奴都来搞金字塔式争宠啊,太强悍了.尤其大爱那位带着苍蝇头防毒面具的毒贩造型,布兰登自从盗墓迷城之后一直没什么好作品出来,也跑进这部片弄个最猥亵的猫王造型唱歌了.全片满是向B级片致敬的有病呻吟的对白和莫名其妙的剧情

Format : Matroska

File size : 1.85 GiB

Duration : 1h 52mn

Overall bit rate : 2 362 Kbps

Encoded date : UTC 2010-02-22 21:41:31

Writing application : mkvmerge v5.9.0 ('On The Loose') built on Dec 9 2012 15:37:01

Writing library : libebml v1.3.0 + libmatroska v1.4.0

Video #1

ID : 1

Format : AVC

Format/Info : Advanced Video Codec

Format profile : [email protected]

Format settings, CABAC : Yes

Format settings, ReFrames : 4 frames

Format settings, GOP : M=1, N=9

Muxing mode : Header stripping

Codec ID : V_MPEG4/ISO/AVC

Duration : 1h 52mn

Bit rate : 2 000 Kbps

Width : 1 280 pixels

Height : 716 pixels

Display aspect ratio : 16:9

Frame rate : 23.976 fps

Color space : YUV

Chroma subsampling : 4:2:0

Bit depth : 8 bits

Scan type : Progressive

Bits/(Pixel*Frame) : 0.091

Stream size : 1.52 GiB (82%)

Writing library : x264 core 116 r2074 2641b9e

Audio #2

ID : 2

Format : AC-3

Format/Info : Audio Coding 3

Mode extension : CM (complete main)

Muxing mode : Header stripping

Codec ID : A_AC3

Duration : 1h 52mn

Bit rate mode : Constant

Bit rate : 384 Kbps

Channel(s) : 6 channels

Channel positions : Front: L C R, Side: L R, LFE

Sampling rate : 48.0 KHz

Bit depth : 16 bits

Compression mode : Lossy

Stream size : 309 MiB (16%)

Language : English

复制代码

当铺大乱斗影片截图:

当铺大乱斗电影下载:

提示:由于该资源受到用户投诉或版权方要求,已经停止链接分享

当铺大乱斗电影评论

更多精彩电影