当前位置:
首页 » 惊悚片 » 惊魂记

惊魂记 Psycho.1960.BluRay.720p.x264.AC3-WOFEI 中英字幕

《惊魂记》海报

◎译 名 惊魂记/精神病患者/触目惊心

◎片 名 Psycho

◎年 代 1960

◎国 家 美国

◎类 别 恐怖

◎语 言 英语

◎字 幕 中英字幕/中文字幕/英中字幕/英文字幕

◎IMDB评分 8.7/10 141,650 votes Top 250: #23

◎文件格式 X264 + AC3

◎视频尺寸 1280 x 694

◎文件大小 1CD 2.18G

◎片 长 109 Min

◎导 演 阿尔弗雷德·希区柯克 Alfred Hitchcock

◎主 演 阿尔弗雷德·希区柯克 Alfred Hitchcock ..... Man in Cowboy Hat (uncredited)

安东尼·博金斯 Anthony Perkins ..... Norman Bates

Paul Jasmin ..... Norma Bates (voice) (uncredited)

珍妮特·利 Janet Leigh ..... Marion Crane

Jeanette Nolan ..... Norma Bates (voice) (uncredited)

Vera Miles ..... Lila Crane

Martin Balsam ..... Detective Milton Arbogast

Sam Flint ..... Officer (uncredited)

弗兰克·艾伯森 Frank Albertson ..... Tom Cassidy

George Eldredge ..... Chief James Mitchell (uncredited)

Virginia Gregg ..... Norma Bates (voice) (uncredited)

John McIntire ..... Sheriff Al Chambers

Patricia Hitchcock ..... Caroline (as Pat Hitchcock)

George Dockstader ..... Extra (uncredited)

Lurene Tuttle ..... Eliza Chambers

Vaughn Taylor ..... George Lowery

Mort Mills ..... Highway Patrol Officer

John Anderson ..... Charlie

Kit Carson ..... Extra (uncredited)

Myra Jones ..... Extra (uncredited)

Lillian O'Malley ..... Extra (uncredited)

Fred Scheiwiller ..... Extra (uncredited)

Francis De Sales ..... Officer (uncredited)

John Gavin ..... Sam Loomis

Helen Wallace ..... Hardware Store Customer (uncredited)

Simon Oakland ..... Dr. Fred Richmond

Frank Killmond ..... Bob Summerfield (uncredited)

Ted Knight ..... Guard (uncredited)

Fletcher Allen ..... Policeman on steps (uncredited)

Pat McCaffrie ..... Police Guard (uncredited)

Keith Britton ..... Extra (uncredited)

Harper Flaherty ..... Extra (uncredited)

Lee Kass ..... Extra (uncredited)

Chief Tahachee ..... Citizen/Ned Place (uncredited)

Prudence Beers ..... Extra (uncredited)

Muriel Bradley ..... Extra (uncredited)

Margaret Furrer ..... Extra (uncredited)

惊魂记剧情介绍:

  故事描述一名盗取公款的女郎在逃亡期间投宿于汽车旅馆,却在浴室中遭精神分裂的狂人杀死。她的妹妹和男友加入警方的调查,在逐步侦查下终于揭露狂人的真相。

  故事来自一个以真实事件为基础的小说:一个女人偷了钱后,来到一家汽车旅店;她在旅店的浴缸里被谋杀,这便是影史上著名的淋浴戏。旅店的老板神色似乎不太正常,到底是他谋财害命,还是另有所图,抑或是他那神秘的母亲在幕后操纵?

关于电影

  《精神病患者》可谓悬念大师希区柯克最具代表性的经典之作,这部空前成功的恐怖电影技巧大胆、画面惊人,即使在数十年后谋杀与血腥的场面仍吓得观众心惊肉跳。

  这部现代恐怖片之母拍摄时成本很低,拍摄时间也很短,改编自劳勃·柏洛区(Robert Bloch)的小说,约瑟夫·史蒂法诺(Joseph Stefano)编剧,由希区柯克以纯熟的蒙太奇技巧游刃有余地操纵观众情绪,从而完成了一次完全意义上的纯电影表达。希区柯克抛弃了以前自己电影中已为人所熟知的一些套路,真正做到了完全通过视觉、而非剧情去刺激观众。片中的"浴室杀人"场面已成影史上的经典画面,共历时48秒,由78个快速切换的镜头组成,尽管连一个刀刺入人体的血腥画面都没有,但其恐怖效果却因蒙太奇、场面调度、节奏、灯光及音响手法的综合运用而达到了无以复加的境界。希区柯克的对这一场景的要求是:"挥砍,用刀猛砍,刀就像要撕碎银幕,冲出电影。"这种"逼真的恐怖"留给观众无尽的想象空间,正如希区柯克所认为的那样:"最紧张的不是那些恶心的死法,而是在人死之前酝酿的气氛。"

导演

  "希区柯克"这一名字可谓悬疑惊悚的代名词,代表了一种电影手法的精神;正是这位举世公认的恐怖大师发明了"惊悚文艺类影片"(the thriller genre)这一电影类型。

  希区柯克一生导演、监制了59部电影,300多部连续剧,绝大多数以紧张、焦虑、窥视欲、恐惧等人性的阴暗面为叙事主题,并熟练地将性感、悬疑、幽默融合于一体。希区柯克执导影片的最终目标是展现出人性最深层的恐怖和最异常的思想,因此与现代恐怖片不同,希区柯克的影片可称为惊悚片,所有的恐怖都在人与人之间存在和发生着,没有扭曲变形血流成河等令人作呕的画面,完全以精巧的情节安排和演员的卓越发挥取胜。

  希区柯克1889年生于伦敦经营蔬菜批发的普通人家,1920年进入电影界,在经历了字幕设计、美术导演、编辑等工作后,于1926年导演了第一部悬疑影片《寄信人》,建立了在英国电影界的地位。1934年的《暗杀者之家》、1936年的《三十九级台阶》让希区柯克享有了国际名声。1940年,第一部好莱坞作品《蝴蝶梦》勇夺奥斯卡最佳作品奖,接着又拍摄了间谍剧《海外特派员》、心理悬疑片《断崖》和精神分析片《爱德华大夫》。1946年,希区柯克拍摄了这一时期的总结性作品《美人计》。

  50年代,希区柯克在在艺术性和娱乐性上齐头并进,并在摄影技术上不断试验,拍出了《电话谋杀案》、《后窗》、《捉贼记》、《眩晕》、《西北偏北》等一系列优秀作品。1960年,希区柯克向新的恐怖挑战,以诡异的题材、意外的故事情节、低预算的黑白制作拍出了一部让全世界惊悚的《精神病患者》,从而使该片成为希区柯克电影生涯的一个里程碑。当时法国新浪潮的导演们或多或少都受到希区柯克的影响,新浪潮的大师们给予了他最高的评价:他就是电影。

  希区柯克在生前即被公认为有史以来最伟大的电影导演之一,曾在1968年获特殊奥斯卡奖,同年获美国导演协会格里菲斯奖。为了表彰他对电影艺术作出的突出贡献,1979年,美国电影艺术与科学学院授予其终身成就奖。1980年,英国女王伊丽莎白二世封他为爵士,同年4月29日在洛杉矶去世。

演员

  《精神病患者》培养出来一男一女两个全球级别明星,即珍妮特·李 (Janet Leigh)和安东尼·珀金斯。

  珍妮特·李生于1927年,1947年同米高梅公司签约,出演了一些青春洋溢的少女角色,1951年与同为演员的托尼·寇蒂斯(《热情似火》)结婚后开始演绎成熟女人的角色。后由于在奥逊·威尔斯的《历劫佳人》和希区柯克的《精神病患者》中的出色表现而晋身一线女星,尤其是《精神病患者》更为其赢得当年的金球奖影后和奥斯卡最佳女配角提名。1999年,珍妮特·李得到法国ZF颁予艺人的最高荣誉"艺术与文学司令"。珍妮特·李曾说过,在拍摄淋浴被杀的经典场面时,希区柯克剪接了70个不同角度的镜头来表达死前的恐惧感,而当她在戏院看罢那场戏后竟感到毛骨悚然,自此之后她再也不敢淋浴了。据悉,李在该片的片酬只有2.5万美元,而此后也一直改用浴缸浸浴。此外,该片中的恐惧表情也被英国电影杂志《TotalFilm》评为历史上最经典的死亡镜头。

  《精神病患者》还捧红了男星安东尼·珀金斯,并使其所饰演的角色诺曼·贝茨成为一个家喻户晓的名字。美国著名演员安东尼·珀金斯(1932-1992)生于纽约,早在大学时代即热衷于表演,一次在百老汇演出时被大导演威廉·惠勒看中,穗请他与著名影星贾利·古柏合演《友好的劝说》,此片获六项奥斯卡奖提名。此后他在希区柯克导演的《精神病患者》中演绎了一位具有双重性格的年轻人,奠定了其在影坛的地位,从此驰骋影坛30年之久。在大西洋两岸,他主演了《孤独的人》、《绿厦》、《审判》、《巴黎战火》等片。

配乐

  此片的配乐也居功甚伟,伯纳德·赫尔曼(Bernard Herrmann)为《精神病患者》专门配器的刺锐弦乐也对烘托电影的紧张气氛有着不可磨灭的贡献。在浴室被杀的场面中,刀刀看似都切入玛丽亚的肉体,其实一刀也没有,其出色的效果完全依靠的是凌厉快速的剪接、多角度的镜头,此外最大的功臣莫过于伯纳德·赫尔曼的配乐,极为尖锐刺耳,不断重复的小提琴尖刻的声响几乎能将人的皮肉切开。希区柯克原本在这一段打算不使用额外的音响效果,但在听了赫尔曼的演奏之后立即改变了主意。

花絮:·希区柯克用化名仅以9000美元就买下了小说的版权。

  ·在《西北偏北》、《迷魂记》两部成本较高的彩色片之后,希区柯克率其电视制作班底用极低的成本拍摄了这部黑白恐怖片。按希区柯克本人的说法是,他是不想此片显得过于血腥暴力(众所周知的浴室一段),而且想看看一部成本低廉的黑白电影会不会卖座。

  ·希区柯克制作的这部《精神病患者》只花费了80万美元,而首次公映之后很快就赢利了1500万美元。

  ·有趣的是希区柯克在拍摄影片时自己也在创造悬念。他要全体制作人员宣誓对剧情及故事的结局严格保密,绝不泄漏任何细节。此外,他还煞有介事地聘请了"母亲"的扮演者,并对外宣布了几位候选者的名单,实际上在剧本中根本没有"母亲"一角的场面。

  ·浴室杀人一场戏的高潮部分只有45秒,而希区柯克却花了差不多7天的时间来拍摄,摄影机的移位达60次之多。

  ·珍妮特·李回忆说,在拍摄《精神病患者》时,为了实验剧中的尸体够不够吓人,希区柯克干脆拿珍妮特当起了试验品。有时李在吃完午饭后推门走进化妆室,会发现坐在她椅子上的是一具可怕的"僵尸"。珍妮特·李说:"希区柯克会根据我每次尖叫的恐惧程度来决定究竟用哪一具假人来做尸体。"

  ·希区柯克支付给安东尼·珀金斯的片酬为4万美元,这也正是玛丽亚从公司偷去的巨款数额。

  ·希区柯克偏爱金发美女,他曾说过:"金发美女最适合被谋杀!想像一下,鲜红的血从她雪白的肌肤上流下来,衬着闪亮的金发是多么美阿!"此片中被杀掉的珍妮特·李当然也是金发。

General

Format : Matroska

File size : 2.19 GiB

Duration : 1h 48mn

Overall bit rate : 2 875 Kbps

Encoded date : UTC 2010-08-23 08:33:23

Writing application : mkvmerge v3.3.0 ('Language') 编译于 Mar 24 2010 14:59:24

Writing library : libebml v0.8.0 + libmatroska v0.9.0

Video #1

ID : 1

Format : AVC

Format/Info : Advanced Video Codec

Format profile : [email protected]

Format settings, CABAC : Yes

Format settings, ReFrames : 4 frames

Muxing mode : Container [email protected]

Codec ID : V_MPEG4/ISO/AVC

Duration : 1h 48mn

Bit rate : 2 370 Kbps

Nominal bit rate : 2 425 Kbps

Width : 1 280 pixels

Height : 694 pixels

Display aspect ratio : 16:9

Frame rate : 23.976 fps

Resolution : 8 bits

Colorimetry : 4:2:0

Scan type : Progressive

Bits/(Pixel*Frame) : 0.111

Stream size : 1.80 GiB (82%)

Writing library : x264 core 98 r1649 c54c47d

Encoding settings : cabac=1 / ref=4 / deblock=1:-1:-1 / analyse=0x3:0x113 / me=umh / subme=6 / psy=1 / psy_rd=1.00:0.00 / mixed_ref=1 / me_range=16 / chroma_me=1 / trellis=2 / 8x8dct=1 / cqm=0 / deadzone=21,11 / fast_pskip=1 / chroma_qp_offset=-2 / threads=6 / sliced_threads=0 / nr=0 / decimate=1 / interlaced=0 / constrained_intra=0 / bframes=3 / b_pyramid=0 / b_adapt=1 / b_bias=0 / direct=3 / weightb=1 / weightp=2 / keyint=250 / keyint_min=25 / scenecut=40 / intra_refresh=0 / rc_lookahead=40 / rc=2pass / mbtree=1 / bitrate=2425 / ratetol=1.0 / qcomp=0.60 / qpmin=10 / qpmax=51 / qpstep=4 / cplxblur=20.0 / qblur=0.5 / vbv_maxrate=50000 / vbv_bufsize=50000 / ip_ratio=1.40 / aq=1:1.00 / nal_hrd=none

Language : English

Audio #2

ID : 2

Format : AC-3

Format/Info : Audio Coding 3

Codec ID : A_AC3

Duration : 1h 48mn

Bit rate mode : Constant

Bit rate : 448 Kbps

Channel(s) : 6 channels

Channel positions : Front: L C R, Surround: L R, LFE

Sampling rate : 48.0 KHz

Stream size : 349 MiB (16%)

Title : 英语

Text #3

ID : 3

Format : SSA

Codec ID : S_TEXT/SSA

Codec ID/Info : Sub Station Alpha

Title : 中英字幕

Text #4

ID : 4

Format : SSA

Codec ID : S_TEXT/SSA

Codec ID/Info : Sub Station Alpha

Title : 英中字幕

Text #5

ID : 5

Format : UTF-8

Codec ID : S_TEXT/UTF8

Codec ID/Info : UTF-8 Plain Text

Title : 中文字幕

Text #6

ID : 6

Format : UTF-8

Codec ID : S_TEXT/UTF8

Codec ID/Info : UTF-8 Plain Text

Title : 英文字幕

惊魂记电影下载:

提示:推荐使用BitComet、Utorrent、QQ旋风、迅雷下载惊魂记。喜欢在线看的朋友可以把种子上传到百度网盘、115网盘,离线下载完手机电脑都可以在线看。

惊魂记电影评论

更多精彩电影