当前位置:
首页 » 剧情片 » 窃听风暴

窃听风暴 The.Lives.Of.Others.2006.BluRay.720p.x264.AC3-WOFEI 中文字幕

《窃听风暴》海报

◎译 名 别人的生活/窃听风暴

◎片 名 The Lives Of Others

◎年 代 2006

◎国 家 德国

◎类 别 剧情/惊悚

◎语 言 德语

◎字 幕 中文字幕

◎IMDB评分 8.5/10 74,342 votes Top 250: #58

◎文件格式 X264 + AC3

◎视频尺寸 1280 X 720

◎文件大小 1CD 2.73G

◎片 长 138MiN

◎导 演 Florian Henckel-Donnersmarck

◎主 演 Martina Gedeck .... Christa-Maria Sieland

哈伯特·奈普 .... Gregor Hessenstein

乌尔里希·图科 .... Oberstleutnant Anton Grubitz

Hans-Uwe Bauer .... Paul Hauser

Bastian Trost .... H ftling 227

窃听风暴剧情介绍:

剧情

  时间是1984年,地点是在东德柏林,每一次的开头字幕出现的是"公开化无处不在"。全东德百姓被一百万史塔西秘密警察控制着,还有两百万名告密者,他们的目地就是要知道别人生活的任何一个细枝末节。

  在这些最敬业的史塔西军官中,有一个名叫戈德·维斯勒Gerd Wiesler上尉(乌尔里希·穆埃饰演),他有着身陷的眼窝永远都是面无表情地注视着。他可以在千里之外嗅到意见不同者的味道,除了工作之外没有自己的任何私生活。在最近的一次演出中观看了乔治·德莱曼Georg Dreyman(塞巴斯蒂安·考奇饰演)的演出--"我们唯一不具危险性的作家正在被西方阅读着",于是他决定,几乎完全是个人的一次挑战,要去调查这个作家,维斯勒丝毫不相信他会像表面上那样清白。

  得到老同事古比兹Grubitz(乌尔里希·土库尔饰演,他总是流露出一种残忍的温厚)的支持,这个文化部的最高长官,以及前史塔西军官调动大臣赫姆夫Hempf(Thomas Thieme饰演),维斯勒就在德莱曼的公寓里安装了电线。

  只是维斯勒无法在划线器上留下任何东西,他总是天真地认定东德的社会制度最是完美的。于是,影片出现了戏剧化的一面,维斯勒开始被德莱曼的生活吸引着,特别是关于他与女演员克里斯塔-玛丽娅·西兰德Christa-Maria Sieland(马蒂娜·戈黛特饰演)的感情问题。

  当时赫姆夫也对克里斯塔-玛丽娅非常着迷,他命令维斯勒用些手段牵制住德莱曼,以扫除这个障碍。于是这名忠实的东德史塔西"仆人",第一次在他的职业生涯中发现自己处于两难的境地。与此同时,德莱曼因为一位好友的自杀,自己的信念也渐渐发生了动摇。

◎拍摄花絮

  ·该片扮演史塔西秘密**的男演员乌尔里希·穆埃,在现实生活中,他的妻子曾经就是一名史塔西的告密者。

  ·《窃听风暴》在2006年,创下了德国国家电影奖"金萝拉奖"提名最多的记录,11项提名,并最终获得包括最佳影片奖在内的7项大奖。

  ·在2006年12月2日波兰华沙举行的欧洲电影节上,该片战胜阿尔莫多瓦的新作《回归》获得最佳影片奖,男主角乌尔里希·穆埃夺得影帝,同时该片还赢得最佳剧本。

  ·《窃听风暴》获得第79届美国奥斯卡最佳外语片奖。

General

Format : Matroska

File size : 2.73 GiB

Duration : 2h 17mn

Overall bit rate : 2 841 Kbps

Encoded date : UTC 2010-09-03 06:48:37

Writing application : mkvmerge v3.4.0 ('Rapunzel') 编译于 May 15 2010 09:38:20

Writing library : libebml v0.8.0 + libmatroska v0.9.0

Video #1

ID : 1

Format : AVC

Format/Info : Advanced Video Codec

Format profile : [email protected]

Format settings, CABAC : Yes

Format settings, ReFrames : 4 frames

Muxing mode : Container [email protected]

Codec ID : V_MPEG4/ISO/AVC

Duration : 2h 17mn

Bit rate : 2 336 Kbps

Nominal bit rate : 2 395 Kbps

Width : 1 280 pixels

Height : 720 pixels

Display aspect ratio : 16:9

Frame rate : 23.976 fps

Resolution : 8 bits

Colorimetry : 4:2:0

Scan type : Progressive

Bits/(Pixel*Frame) : 0.106

Stream size : 2.24 GiB (82%)

Writing library : x264 core 98 r1649 c54c47d

Encoding settings : cabac=1 / ref=4 / deblock=1:-1:-1 / analyse=0x3:0x113 / me=umh / subme=6 / psy=1 / psy_rd=1.00:0.00 / mixed_ref=1 / me_range=16 / chroma_me=1 / trellis=2 / 8x8dct=1 / cqm=0 / deadzone=21,11 / fast_pskip=1 / chroma_qp_offset=-2 / threads=6 / sliced_threads=0 / nr=0 / decimate=1 / interlaced=0 / constrained_intra=0 / bframes=3 / b_pyramid=0 / b_adapt=1 / b_bias=0 / direct=3 / weightb=1 / weightp=2 / keyint=250 / keyint_min=25 / scenecut=40 / intra_refresh=0 / rc_lookahead=40 / rc=2pass / mbtree=1 / bitrate=2395 / ratetol=1.0 / qcomp=0.60 / qpmin=10 / qpmax=51 / qpstep=4 / cplxblur=20.0 / qblur=0.5 / vbv_maxrate=50000 / vbv_bufsize=50000 / ip_ratio=1.40 / aq=1:1.00 / nal_hrd=none

Language : English

Audio #2

ID : 2

Format : AC-3

Format/Info : Audio Coding 3

Codec ID : A_AC3

Duration : 2h 17mn

Bit rate mode : Constant

Bit rate : 448 Kbps

Channel(s) : 6 channels

Channel positions : Front: L C R, Surround: L R, LFE

Sampling rate : 48.0 KHz

Stream size : 441 MiB (16%)

Text #3

ID : 3

Format : UTF-8

Codec ID : S_TEXT/UTF8

Codec ID/Info : UTF-8 Plain Text

Title : 中文

窃听风暴电影下载:

提示:推荐使用BitComet、Utorrent、QQ旋风、迅雷下载窃听风暴。喜欢在线看的朋友可以把种子上传到百度网盘、115网盘,离线下载完手机电脑都可以在线看。

窃听风暴电影评论

更多精彩电影