当前位置:
首页 » 喜剧片 » 小小飞虎队

小小飞虎队Little.Tigers.2013.720p.HDRip.x264.AC3-SmY 中英

◎译 名 小小飞虎队/ 电影版小小飞虎队 / 小小飞虎队金龙版 /

◎片 名 Little Tigers

◎年 代 2013

◎国 家 中国大陆

◎类 别 喜剧 / 动作 / 儿童 / 战争

◎语 言 汉语普通话

◎字 幕 中文

◎IMDB评分 N/A

◎IMDB链接 N/A

◎文件格式 X264 + AAC/AC3

◎视频尺寸 720p / 1080

◎文件大小 747MB / 2.41G

◎片 长 87min

◎导 演 钱晓鸿 Xiaohong Qian

◎主 演 赵泽文 Zewen Zhao ....大壮

张一山 Yishan Zhang ....彭亮

胡天阳 Tian Yang Hu ....小银

小叮咚 Xiao Ding Dong ....虎子

丁柳元 Liuyuan Ding ....辣嫂

谢孟伟 Mengwei Xie ....老七

祝新运 Xinyun Zhu ....铁柱爹

石小满 Xiaoman Shi ....伪保长

果静林 Jinglin Guo ....老吴

岳红 Hong Yue ....葵花婶

涩谷天马 Tenma Shibuya ....冈村

山崎敬一 Keiichi Yamasaki ....情报专家

张政勇 Zhengyong Zhang ....老洪

小小飞虎队剧情介绍:

  小小飞虎队》曾获得了大众电视金鹰奖最佳儿童剧奖,飞天奖三等奖等众多奖项。

  几个主要儿童演员此前几乎都没有表演经验,为了挑选到合适的小演员,剧组在京、鲁、豫近40多所学校选择了三万多名孩子。

  故事讲述了抗战时期的鲁南,交通员老吴(果静林饰)在给山里八路军送情报的路上突遭日军的追杀,在万不得已的情形下他将情报编成两句暗语告诉了正在芦苇荡玩的小主人公:大壮(赵泽文饰),自此,胆小、笨拙而又"一根筋"的大壮拉上同村的虎子(小叮咚 饰)和小银(胡天阳 饰)踏上了前途未卜的 送情报之旅--

Format : Matroska

File size : 2.41 GiB

Duration : 1h 27mn

Overall bit rate : 3 933 Kbps

Encoded date : UTC 2010-02-22 21:41:31

Writing application : mkvmerge v5.9.0 ('On The Loose') built on Dec 9 2012 15:37:01

Writing library : libebml v1.3.0 + libmatroska v1.4.0

Video #1

ID : 1

Format : AVC

Format/Info : Advanced Video Codec

Format profile : [email protected]

Format settings, CABAC : Yes

Format settings, ReFrames : 2 frames

Muxing mode : Header stripping

Codec ID : V_MPEG4/ISO/AVC

Duration : 1h 27mn

Bit rate : 3 663 Kbps

Width : 1 920 pixels

Height : 1 080 pixels

Display aspect ratio : 16:9

Frame rate mode : Variable

Frame rate : 25.000 fps

Color space : YUV

Chroma subsampling : 4:2:0

Bit depth : 8 bits

Scan type : Progressive

Bits/(Pixel*Frame) : 0.071

Stream size : 2.24 GiB (93%)

Writing library : avc encoder v1.9

Audio #2

ID : 2

Format : AC-3

Format/Info : Audio Coding 3

Mode extension : CM (complete main)

Muxing mode : Header stripping

Codec ID : A_AC3

Duration : 1h 27mn

Bit rate mode : Constant

Bit rate : 192 Kbps

Channel(s) : 2 channels

Channel positions : Front: L R

Sampling rate : 44.1 KHz

Bit depth : 16 bits

Compression mode : Lossy

Delay relative to video : 4ms

Stream size : 120 MiB (5%)

小小飞虎队影片截图:

《小小飞虎队》海报

《小小飞虎队》剧照-1

《小小飞虎队》剧照-2

《小小飞虎队》剧照-3

小小飞虎队电影下载:

提示:推荐使用BitComet、Utorrent、QQ旋风、迅雷下载小小飞虎队。喜欢在线看的朋友可以把种子上传到百度网盘、115网盘,离线下载完手机电脑都可以在线看。

小小飞虎队电影评论

更多精彩电影