当前位置:
首页 » 爱情片 » 天台爱情

天台爱情 The Rooftop.2013.1080p.WEB-DL.x264.AAC-SmY 中文

◎译 名 天台爱情

◎片 名 The Rooftop

◎年 代 2013

◎国 家 中国大陆/香港/台湾

◎类 别 爱情/动作/歌舞/喜剧

◎语 言 国语

◎字 幕 中文

◎IMDB评分 Ratings: 7.8/10 from 97 users

◎文件格式 X264+ AAC

◎视频尺寸 1916×800

◎文件大小 1CD 1.97GB

◎片 长 117 Mins

◎导 演 周杰伦 Jay Chou

◎主 演 周杰伦 Jay Chou ....浪子膏

李心艾 Xin-ai Li ....李心艾

柯有纶 Alan Kuo ....黑轮

曾志伟 Eric Tsang ....波爷

王学圻 Xueqi Wang ....雷哥

徐帆 Fan Xu ....茉莉姐

杨瑞代 Gary Yang

弹头 Devon ....蛋花

纳豆 Yuzhi Lin ....豆花

黄俊郎 Alang ....阿郎

钟镇涛 Kenny Bee ....心艾的爸爸

天台爱情剧情介绍:

  在漫画般繁华的加利利市住着一群"天台人",他们居住在城市建筑的天台上过着清贫快乐的生活。浪子膏(周杰伦饰)、黑轮(柯有伦饰)、蛋花(宋健彰饰)、花椰菜(黄俊郎 饰)就是其中几个爱耍帅善良的天台少年,他们从小被茉莉姐(徐帆饰)养大,在波爷(曾志伟饰)的医药馆里打工。由于黑轮在黑社会性质的"市居会"帮助雷哥(王学圻饰)收租得罪了同僚红毛(黄怀晨饰),至此牵连了几个好友。同时浪子膏巧遇了心仪已久的女明星心艾(李心艾饰)并与之日久生情,而心艾的老板威少(邱凯伟饰)因为嫉妒从中挑拨,并与红毛联手对付浪子膏一伙,引发了一场腥风血雨的争斗。关键时刻面对爱人和朋友浪子膏做出了一个重大的抉择。

  本片是周杰伦自《不能说的秘密》之后自导自演自编的第二部电影,与前作不同,这是一部风格十足的歌舞片,并请来了许多新老明星加盟,包括"全民大闷锅"中的一系列谐星,周杰伦好友刘畊宏任监制并客串,刘伟强导演也倾情加盟。

File size : 1.97 GiB

Duration : 1h 57mn

Overall bit rate : 2 407 Kbps

Video

Format : AVC

Format/Info : Advanced Video Codec

Format profile : [email protected]

Format settings, CABAC : Yes

Format settings, ReFrames : 4 frames

Codec ID : 7

Duration : 1h 57mn

Bit rate : 2 328 Kbps

Width : 1 916 pixels

Height : 800 pixels

Display aspect ratio : 2.40:1

Frame rate mode : Constant

Frame rate : 24.000 fps

Color space : YUV

Chroma subsampling : 4:2:0

Bit depth : 8 bits

Scan type : Progressive

Bits/(Pixel*Frame) : 0.063

Stream size : 1.91 GiB (97%)

Writing library : x264 core 128

Audio

Format : AAC

Format/Info : Advanced Audio Codec

Format profile : HE-AAC / LC

Codec ID : 10

Duration : 2h 3mn

Bit rate : 70.7 Kbps

Channel(s) : 2 channels

Channel positions : Front: L R

Sampling rate : 48.0 KHz / 24.0 KHz

Compression mode : Lossy

Delay relative to video : 161ms

Stream size : 62.5 MiB (3%)

天台爱情影片截图:

《天台爱情》海报

《天台爱情》剧照-1

《天台爱情》剧照-2

《天台爱情》剧照-3

《天台爱情》剧照-4

天台爱情电影下载:

提示:由于该资源受到用户投诉或版权方要求,已经停止链接分享

天台爱情电影评论

更多精彩电影