当前位置:
首页 » 喜剧片 » 宿醉3

宿醉3/醉后大丈夫3(台)The Hangover Part III DVDRip XviD AC3-MAXSPEED 简中字幕

《宿醉3》海报

◎译 名 宿醉3/醉爆伴郎团3(港)/醉后大丈夫3(台)

◎片 名 The Hangover Part III

◎年 代 2013

◎国 家 美国

◎类 别 喜剧

◎语 言 英语

◎字 幕 中文

◎IMDB评分 6.2/10 from 34,229 users

◎文件格式 XviD + AC3

◎视频尺寸 720 X 304

◎文件大小 1CD 1.34GB

◎片 长 1h 40mn

◎导 演 托德·菲利普斯 Todd Phillips

◎主 演 布莱德利·库珀 Bradley Cooper ....Phil

扎克·加利费安纳基斯 Zach Galifianakis ....Alan

艾德·赫尔姆斯 Ed Helms ....Stu

贾斯汀·巴萨 Justin Bartha ....Doug

梅丽莎·麦卡西 Melissa McCarthy

杰米·钟 Jamie Chung ....Lauren

约翰·古德曼 John Goodman

海瑟·格拉汉姆 Heather Graham ....Jade

肯·郑 Ken Jeong ....Mr. Chow

Deuandra T. Brown ....Local Shopper

杰弗里·塔伯 Jeffrey Tambor ....Sid Garner

马克斯·纳波利塔诺 Max Napolitano ....Casino Guy

迈克·艾普斯 Mike Epps ....Black Doug

吉莲·韦格曼 Gillian Vigman ....Stephanie

萨莎·巴瑞斯 Sasha Barrese ....Tracy

宿醉3剧情介绍:

  艾伦的父亲死了,艾伦沉浸在悲痛之中无法自拔。他的三个好损友看到艾伦这样一天一天地消沉下去,总是觉得这样不好。所以,他们凑钱,想让艾伦去一个疗养院住一段时间,好换换心情。艾伦欣欣然地同意了。

但是,在去疗养院的路上,出了大事。

  这四个好基友被一群黑帮袭击了,而且道格被绑架了。绑匪的要求是,让剩下来的三个人去找一个叫做周先生的男人,把他毫发无伤地带回美国,用他来交换道格的性命。否则的话,这四个人就再也不能在一起宿醉了--

◎幕后制作

宿醉》系列最终章

  《宿醉》系列,不仅仅把几位名不见经传的喜剧演员变成了大明星,更是在这几年里,让R级喜剧成为了极有票房潜力的片种。在《宿醉》之后,这样的疯癫喜剧就成为了银幕上的某种主流元素,而跟风的影片却因为没有获得《宿醉》那么大的成功,更显得《宿醉》在这个时代里的难等可贵。

  《宿醉2》拍完之后,《宿醉3》的拍摄日程就被提到了桌面来了。影片的导演兼编剧托德·菲利普斯说:"其实,拍不拍第三集并不是我说了算的事情,这是观众决定的。如果观众希望有第三集的出现,那么我们一定会把这部电影拍好。第三集和前面两集都不一样,我们需要一个更大的设定来让这个故事有个结尾,让这群时常在一起喝酒宿醉的损友们找到生活的意义。我们没有一个拍摄的样板,因为这部电影在我的心里并不是一个续集,也不是一个毫无新意的滥竽充数的作品。我们用新的角度和新的想法介入到了影片的故事之中,用另外一种喜剧的框架和结构,来拍摄了这部电影。"

  和前面两部电影不同,《宿醉3》和饮酒、宿醉的关系并不大,反而是一部讲述朋友之间关系的喜剧。菲利普斯说:"这部电影是艾伦的电影,所有的故事都是因他而起,然后大部分故事也都是因为他才出现的。这部电影里,几乎没有饮酒,更没有豪饮和宿醉。艾伦,在这部电影中遭遇到了个人的危机,他的父亲去世了,他又被卷入了令人生畏的绑架、黑帮的斗争之中。所以说,这部电影就是艾伦的电影,也并不算夸张。"

  在《宿醉3》拍摄完之后,《宿醉》系列将被划上一个句号。对于这计划中的最后一部电影,菲利普斯说:"的确,这是我们计划中的最后一部电影了,我很开心,能和这群人在一起合作,对于这即将结束的一段工作,我感到既欣慰、又紧张,当然,还有些许的难过和不舍。这些都不是问题,关键是,拍摄这部电影,然我很过瘾。"

原班人马再次回归

  《宿醉》是有纪念意义的,除了这套影片的高票房令人咋舌之外,影片的主演们也都在这部电影之后迎来了自己事业的转折点。菲利普斯说:"《宿醉》系列是有纪念意义的电影,对于我来说是这样,对于演员们来说也是这样。在《宿醉》获得成功之后,这些演员都迎来了事业的转折,让人们见识到了他们的才华,这令人很是欣慰。他们在这部电影中的表演,一样令人怀念,因为就好像是在《宿醉》中一样,他们的表演依然是鲜活的。"

  谈及这部点和自己在其中的表演,扮演艾伦的扎克·加利费安纳基斯说:"我不觉得这是一部艾伦的电影,我觉得艾伦只是这其中重要的演员之一。他首先是一个不幸的人,一个倒霉蛋,其次还是一个不自知的人,一个希望弥补错误但却会犯下更多错误的人。我觉得这其中有大量的笑点,有很多令人瞠目结舌的剧情设计。这是很好玩的。我的角色没有换过,还是原来的感觉和设定。表演也就和从前一样。之前怎么表演,现在还是怎么表演。对这部电影,我最喜欢的一点就是它没有照搬之前《宿醉》的公式,而是另外写了一个剧本。要知道,这对于一部三部曲的结束之作来说,是非常冒险的事情。"

  韩裔演员肯·郑,在这部电影中虽然戏份不多,但却是一个关键性的角色,而且他在这部电影中有很多动作戏。他说:"这部电影和之前的《宿醉》很不一样,故事结构、叙事的方法和概念都不相同,并没有按照原来的模式拍。所以,我们的表演也要进行修正和改变。我的在其中还是扮演了一个黑帮,只不过,这次有更多的笑料集中在我的角色上,我的戏份更重了。而且,我还有些动作戏要表演,这有些难度,因为这部电影中的动作戏并不是我们一般意义上认为的动作戏,而是那种要搞出笑料来的动作戏。有动作不够,还要有笑点。这就很难了。不过,在Gill的帮助和指导下,这些镜头拍摄得很是顺利。"

◎拍摄花絮

  ·第三集中剧组将大混乱的场景设置在洛杉矶,另一拍摄地点则定为墨西哥北部城市提华纳。

·本片是《宿醉》系列的最终章。

  ·第三部影片和前两部不同,讲述的并不是宿醉之后的故事,而讲述了一个朋友之间互相营救的故事。

  ·和前两部电影相比,这部电影更加真实也更加黑暗,喜剧元素并没有那么多。

  ·在对于艾伦这个人物的服装上,剧组做了大量的工作。他们甚至给他准备了很多带有横条纹的T恤,目的就是为了让他看上去更胖。

  ·在《宿醉》大获成功之后,《宿醉》里的那些演员都迎来了表演生涯的转折点。尤其是布莱德利·库珀,他不仅成为了一线明星,而且还得到了奥斯卡的提名。

  ·肯·郑在这部电影中有很多的动作戏,对于他来说,这是头一遭。而本片的动作指导则是在《全面回忆》中担任特技演员的Jack Gill。

  ·小罗伯特·唐尼和[西恩·潘]都准备在本片中扮演一个角色的,可是后来这个角色被交到了约翰·古德曼的手上。

The Hangover Part III (2013) DVDRip XviD-MAXSPEED

Format : AVI

Format/Info : Audio Video Interleave

Format profile : OpenDML

Format settings : rec

File size : 1.33 GiB

Duration : 1h 40mn

Overall bit rate : 1 895 Kbps

Writing application : AVI-Mux GUI 1.17.8.3, Feb 16 201019:42:50

Video

ID : 0

Format : MPEG-4 Visual

Format profile : Advanced [email protected]

Format settings, BVOP : 2

Format settings, QPel : No

Format settings, GMC : No warppoints

Format settings, Matrix : Default (H.263)

Muxing mode : Packed bitstream

Codec ID : XVID

Codec ID/Hint : XviD

Duration : 1h 40mn

Bit rate : 1 698 Kbps

Width : 720 pixels

Height : 304 pixels

Display aspect ratio : 2.35:1

Frame rate : 23.976 fps

Color space : YUV

Chroma subsampling : 4:2:0

Bit depth : 8 bits

Scan type : Progressive

Compression mode : Lossy

Bits/(Pixel*Frame) : 0.324

Stream size : 1.19 GiB (90%)

Writing library : XviD 64

Audio

ID : 1

Format : AC-3

Format/Info : Audio Coding 3

Mode extension : CM (complete main)

Format settings, Endianness : Big

Codec ID : 2000

Duration : 1h 40mn

Bit rate mode : Constant

Bit rate : 192 Kbps

Channel(s) : 2 channels

Channel positions : Front: L R

Sampling rate : 48.0 KHz

Bit depth : 16 bits

Compression mode : Lossy

Stream size : 138 MiB (10%)

Alignment : Aligned on interleaves

Interleave, duration : 64 ms (1.53 video frames)

Interleave, preload duration : 192 ms

Source: DVD (perfect a/v/sync quality,sample included)

This torrent is not seedbox supported,please seed it to the MAX

NOTE

BE AWARE OF BOGUS SITES , FAKE FILES AND

STUPID SPAMMERS DOWNLOAD ALWAYS YOUR MAX DATA FROM OUR SITE

Recommended player for all our movies

REMEMBER: GOD DEMANDS LOVE,SEEDS,PEERS AND A FAIR TORRENT RATIO

宿醉3影片截图:

《宿醉3》剧照-1

宿醉3电影下载:

提示:推荐使用BitComet、Utorrent、QQ旋风、迅雷下载宿醉3。喜欢在线看的朋友可以把种子上传到百度网盘、115网盘,离线下载完手机电脑都可以在线看。

宿醉3电影评论

更多精彩电影