当前位置:
首页 » 惊悚片 » 奇幻夜

奇幻夜/李碧华鬼魅系列之奇幻夜Tales.From.The.Dark.2.2013.720p.BRRip.x264.AC3-SmY 简繁

《奇幻夜》海报

◎译 名 奇幻夜/李碧华鬼魅系列之奇幻夜/鬼夜之奇幻夜(台)

◎片 名 Tales from the Dark 2

◎年 代 2013

◎国 家 中国香港

◎类 别 惊悚/剧情/悬疑

◎语 言 粤语/普通话

◎字 幕 N/A

◎IMDB评分 6.0/10 from 14 users

◎文件格式 X264+ AC3

◎视频尺寸 1280x720

◎文件大小 1CD 1.71 GB

◎片 长 1h 27mn

◎导 演 刘国昌 Lawrence Ah Mon

泰迪罗宾 Teddy Robin Kwan

陈嘉上 Gordon Chan

◎主 演 陈法拉 Fala Chen

林家栋 Ka Tung Lam

泰迪罗宾 Teddy Robin Kwan

莫绮雯 Aliza Mo

黎汉持 Hon Chi Lai

尹扬明 Yeung Ming Wan

关楚耀 Kelvin

张国强 Kwok Keung Cheung

奇幻夜剧情介绍:

  改编自风靡海峡两岸、著名香港作家李碧华《夜》系列原著小说,"李碧华鬼魅系列"将会分成上、下两集推出,第1集《迷离夜》,第2集《奇幻夜》,每集各自包含3个灵异短篇。《奇幻夜》包含《枕妖》、《迷藏》、《黑伞》三则独立剧情。

枕妖

  自从跟男友阮浩康(林家栋 饰)分手后,无论每晚吃多少粒安眠药,邹静怡(陈法拉 饰)还是夜夜失眠。某天偶尔在旧式杂货店,买了一个有绣花图案的药枕。药枕紧贴着脸,气息相通,邹静怡竟然可以一觉到天光,不知人间何世。谁知道药枕不单令人沉醉美梦,更会燃起内心深处的欲火,一发不可收拾--

迷藏

  那些年是甜蜜回忆,还是恐怖的死亡游戏?杀校在即,肥强(陈耀荣 饰)把握最后机会,跟一班旧同学潜入荒废已久的母校怀缅过去,竟然发现校工陈伯(黎汉持 饰)偷偷住在校舍内。众人不理陈伯的劝告,坚持在子夜时份玩`天师捉鬼`的游戏,八人--参加,究竟有几多人可活着出来?

黑伞

  神鬼如何两不分!在这个人欲横流的都市,究竟谁是人?谁是鬼?林伯(泰迪罗宾 饰)穿着唐装衫裤,手持一柄木制黑伞,经常深夜独自游荡。今晚是农历七月十四,林伯显--得心事重重,行事小心翼翼,直至遇上流莺珍妮花(莫绮雯 饰),结果一发不可收拾--

Format : Matroska

Format version : Version 4 / Version 2

File size : 1.71 GiB

Duration : 1h 27mn

Overall bit rate : 2 799 Kbps

Encoded date : UTC 2010-02-22 21:41:31

Writing application : mkvmerge v5.9.0 ('On The Loose') built on Dec 9 2012 15:37:01

Writing library : libebml v1.3.0 + libmatroska v1.4.0

Video #1

ID : 1

Format : AVC

Format/Info : Advanced Video Codec

Format profile : [email protected]

Format settings, CABAC : Yes

Format settings, ReFrames : 4 frames

Muxing mode : Header stripping

Codec ID : V_MPEG4/ISO/AVC

Duration : 1h 27mn

Bit rate : 2 500 Kbps

Width : 1 280 pixels

Height : 720 pixels

Display aspect ratio : 16:9

Frame rate : 24.000 fps

Color space : YUV

Chroma subsampling : 4:2:0

Bit depth : 8 bits

Scan type : Progressive

Bits/(Pixel*Frame) : 0.113

Stream size : 1.48 GiB (87%)

Writing library : x264 core 116 r2074 2641b9e

Audio #2

ID : 2

Format : AC-3

Format/Info : Audio Coding 3

Mode extension : CM (complete main)

Format settings, Endianness : Big

Muxing mode : Header stripping

Codec ID : A_AC3

Duration : 1h 27mn

Bit rate mode : Constant

Bit rate : 320 Kbps

Channel(s) : 2 channels

Channel positions : Front: L R

Sampling rate : 48.0 KHz

Bit depth : 16 bits

Compression mode : Lossy

Stream size : 200 MiB (11%)

Default : Yes

Forced : No

Text #3

ID : 3

Format : SSA

Codec ID : S_TEXT/SSA

Codec ID/Info : Sub Station Alpha

Compression mode : Lossless

Default : Yes

Forced : No

Text #4

ID : 4

Format : SSA

Codec ID : S_TEXT/SSA

Codec ID/Info : Sub Station Alpha

Compression mode : Lossless

Default : No

Forced : No

奇幻夜影片截图:

《奇幻夜》剧照-1

《奇幻夜》剧照-2

《奇幻夜》剧照-3

奇幻夜电影下载:

提示:由于该资源受到用户投诉或版权方要求,已经停止链接分享

奇幻夜电影评论

更多精彩电影