当前位置:
首页 » 喜剧片 » 非常幸运

非常幸运 My Lucky Star.2013.DVDScr.XviD.AC3-SmY 中文

《非常幸运》海报

◎译 名 非常幸运/非常完美2

◎片 名 My Lucky Star

◎年 代 2013

◎国 家 中国大陆

◎类 别 喜剧 / 爱情

◎语 言 汉语普通话

◎字 幕 中文

◎IMDB评分 Ratings: 6.6/10 from 21 users

◎文件格式 XviD +AC3

◎视频尺寸 720 x 300

◎文件大小 1.70G

◎片 长 104min

◎导 演 邓尼·戈登 Dennie Gordon

◎主 演 章子怡 Ziyi Zhang ....苏菲

王力宏 LeeHom Wang ....大卫

郑恺 Kai Zheng ....阿宝

关颖 Terri Kwan ....黑寡妇

姚晨 Chen Yao ....李莉

林心如 Ruby Lin ....陆小夕

蔡少芬 Ada Choi ....西西

高捷 Jack Kao

戎祥 Morris Rong

张晋 Max ZhangSingh

Hartihan Bitto ....Arm dealer

邢思杰 Alfred Hsing ....Li Wan's Henchman

刘桦 Hua Liu

非常幸运剧情介绍:

  一次偶然的机会,在闺蜜李莉(姚晨饰)和陆小夕(林心如 饰)的怂恿下,宅女漫画家苏菲(章子怡 饰)踏上了去往新加坡的旅程,遇见了她梦寐以求的"邦德男人"大卫(王力宏饰)。然而,在一系列歪打误撞之后,苏菲搅黄了"特工"大卫的计划。原来大卫和助手阿宝(郑恺饰)正在追查世界上最大的钻石"幸运星"的下落--然而,大卫不得不与苏菲配合才能完成这次任务,于是两人踏上了令人"啼笑皆非"的冒险之旅。

  一路上,苏菲扮演各种角色,上演无数惊险而喜剧的桥段。对自己的心上人,当苏菲自以为即将得手时,却发现头号反派黑寡妇(关颖饰)竟原是大卫的准前妻!在整个迷局里,苏菲只是其中一颗小小的棋子--这一切到底是真是假,大卫的感情又是真是假?苏菲到底能否拯救她的爱人?

Format : AVI

Format/Info : Audio Video Interleave

Format profile : OpenDML

Format settings : rec

File size : 1.70 GiB

Duration : 1h 44mn

Overall bit rate : 2 322 Kbps

Writing application : AVI-Mux GUI 1.17.8.3, Feb 16 201019:42:50

Video #0

ID : 0

Format : MPEG-4 Visual

Format profile : Advanced [email protected]

Format settings, BVOP : 2

Format settings, QPel : No

Format settings, GMC : No warppoints

Format settings, Matrix : Default (H.263)

Codec ID : XVID

Codec ID/Hint : XviD

Duration : 1h 44mn

Bit rate : 1 996 Kbps

Width : 720 pixels

Height : 300 pixels

Display aspect ratio : 2.40:1

Frame rate : 29.970 fps

Color space : YUV

Chroma subsampling : 4:2:0

Bit depth : 8 bits

Scan type : Progressive

Compression mode : Lossy

Bits/(Pixel*Frame) : 0.308

Stream size : 1.46 GiB (86%)

Writing library : XviD 1.2.1 (UTC 2008-12-04)

Audio #1

ID : 1

Format : AC-3

Format/Info : Audio Coding 3

Mode extension : CM (complete main)

Codec ID : 2000

Duration : 1h 44mn

Bit rate mode : Constant

Bit rate : 320 Kbps

Channel(s) : 2 channels

Channel positions : Front: L R

Sampling rate : 48.0 KHz

Bit depth : 16 bits

Compression mode : Lossy

Stream size : 240 MiB (14%)

Alignment : Aligned on interleaves

Interleave, duration : 64 ms (1.92 video frames)

Interleave, preload duration : 192 ms

Title : VTS_01_1_track2

非常幸运影片截图:

非常幸运电影下载:

提示:推荐使用BitComet、Utorrent、QQ旋风、迅雷下载非常幸运。喜欢在线看的朋友可以把种子上传到百度网盘、115网盘,离线下载完手机电脑都可以在线看。

非常幸运电影评论

更多精彩电影