当前位置:
首页 » 剧情片 » 摩登时代

摩登时代 Fake.Fiction.2013.1080p.WEB-DL.x264.AAC-SmY 中英

◎译 名 摩登时代

◎片 名 Fake Fiction

◎年 代 2013

◎国 家 中国大陆

◎类 别 剧情 / 喜剧

◎语 言 汉语普通话

◎字 幕 中文/英文

◎IMDB评分 N/A

◎IMDB链接 N/A

◎文件格式 X264+ AAC

◎视频尺寸 1920 x 804

◎文件大小 1CD 1.61G

◎片 长 95min

◎导 演 邵晓黎 Xiao Li Shao ....总导演

◎主 演 徐峥 Zheng Xu ....欧大卫

张子枫 Zifeng Zhang ....丢丢

王宣予 Xuan Yu Wang ....毛娜

张颂文 Zhang Song Wen ....魏建

王太利 Taili Wang ....李文学

肖央 Yang Xiao ....交警

岳小军 Xiaojun Yue ....魔术店老板

杜鹏 Peng Du ....废品店老板

摩登时代剧情介绍:

  靠魔术行骗的江湖骗子欧大卫(徐峥 饰)掉进自己编织的骗局中,突然又冒出一个八岁的孩子丢丢(张子枫饰)声称是他的女儿。莫名其妙的大卫对丢丢十分不耐烦,但遭到了丢丢的连环制裁。次日,欧大卫的搭档李文学(王太利饰)给他带来了一笔大生意:一场"大变海神之母"的魔术表演。当然,这对骗子只打算拿到定金就跑路。不料欧大卫却再遭李文学的连环骗局,不得面对那根本无法完成的魔术。丢丢更是紧追不舍,在被迫一起寻找魔术方法的旅途中,丢丢和欧大卫开始互相了解,逐渐产生深厚的"父女"情,而大卫因为丢丢获得了"大变海神之母"的灵感。一场极度危险的深水逃生魔术即将开始,为爱,他要表演一个不可能完成的魔术。

File size : 1.61 GiB

Duration : 1h 35mn

Overall bit rate : 2 408 Kbps

Video

Format : AVC

Format/Info : Advanced Video Codec

Format profile : [email protected]

Format settings, CABAC : Yes

Format settings, ReFrames : 4 frames

Codec ID : 7

Duration : 1h 36mn

Bit rate : 2 328 Kbps

Width : 1 920 pixels

Height : 804 pixels

Display aspect ratio : 2.40:1

Frame rate mode : Constant

Frame rate : 25.000 fps

Color space : YUV

Chroma subsampling : 4:2:0

Bit depth : 8 bits

Scan type : Progressive

Bits/(Pixel*Frame) : 0.060

Stream size : 1.56 GiB (97%)

Writing library : x264 core 128

Audio

Format : AAC

Format/Info : Advanced Audio Codec

Format profile : HE-AAC / LC

Codec ID : 10

Duration : 1h 41mn

Bit rate : 70.7 Kbps

Channel(s) : 2 channels

Channel positions : Front: L R

Sampling rate : 48.0 KHz / 24.0 KHz

Compression mode : Lossy

Delay relative to video : 235ms

Stream size : 51.1 MiB (3%)

摩登时代影片截图:

《摩登时代》海报

《摩登时代》剧照-1

《摩登时代》剧照-2

摩登时代电影下载:

提示:由于该资源受到用户投诉或版权方要求,已经停止链接分享

摩登时代电影评论

更多精彩电影