当前位置:
首页 » 动作片 » 毒蛇俱乐部

毒蛇俱乐部:蛇女复仇 S.C.R.of.the.S.W.2012.1080p.HDRip.x264.AC3-SmY 中文

《毒蛇俱乐部》海报

◎译 名 毒蛇俱乐部

◎片 名 Snake Club Revenge of the Snake Woman

◎年 代 2012

◎国 家 美国

◎类 别 动作/惊悚/科幻

◎语 言 英语

◎字 幕 简体

◎IMDB评分 3.4/10 from 9 users

◎文件格式 X264 + AC3

◎视频尺寸 1920×1080

◎文件大小 1CD 2.33G

◎片 长 84 Mins

◎导 演 David Palmieri

◎主 演 Keoni Carew -Eve

Tracy Carr -Karma

Cuyle Carvin -Jacob

Kristen Walterscheid Casner -Candy

Krystal Ellsworth -Starr

Wilfred Gelin -Joe

Arsee Hahn -Summer

毒蛇俱乐部剧情介绍:

  故事从一个关于拉弥亚(希腊神话中的人首蛇身女怪)一个美丽的女王的古老传说开始。她的爱人被杀死,她被变成了一条蛇,她开始肆无忌惮的杀戮直到上帝把她变

成石像。现在,她返回人间的时间到了--

Format : Matroska

File size : 2.33 GiB

Duration : 1h 24mn

Overall bit rate : 3 931 Kbps

Encoded date : UTC 2010-02-22 21:41:31

Writing application : mkvmerge v5.9.0 ('On The Loose') built on Dec 9 2012 15:37:01

Writing library : libebml v1.3.0 + libmatroska v1.4.0

Video #1

ID : 1

Format : AVC

Format/Info : Advanced Video Codec

Format profile : [email protected]

Format settings, CABAC : Yes

Format settings, ReFrames : 2 frames

Muxing mode : Header stripping

Codec ID : V_MPEG4/ISO/AVC

Duration : 1h 24mn

Bit rate : 3 661 Kbps

Width : 1 920 pixels

Height : 1 080 pixels

Display aspect ratio : 16:9

Frame rate mode : Variable

Frame rate : 25.000 fps

Color space : YUV

Chroma subsampling : 4:2:0

Bit depth : 8 bits

Scan type : Progressive

Bits/(Pixel*Frame) : 0.071

Stream size : 2.17 GiB (93%)

Writing library : avc encoder v1.9

Audio #2

ID : 2

Format : AC-3

Format/Info : Audio Coding 3

Mode extension : CM (complete main)

Muxing mode : Header stripping

Codec ID : A_AC3

Duration : 1h 24mn

Bit rate mode : Constant

Bit rate : 192 Kbps

Channel(s) : 2 channels

Channel positions : Front: L R

Sampling rate : 44.1 KHz

Bit depth : 16 bits

Compression mode : Lossy

Stream size : 117 MiB (5%)

毒蛇俱乐部影片截图:

毒蛇俱乐部电影下载:

提示:由于该资源受到用户投诉或版权方要求,已经停止链接分享

毒蛇俱乐部电影评论

更多精彩电影