当前位置:
首页 » 动作片 » 帝国秘符

帝国秘符 The.Empire.Symbol.2013.DVDScr.XviD.AC3-SmY 中英

《帝国秘符》海报

◎译 名 帝国秘符

◎片 名 The Empire Symbol

◎年 代 2013

◎国 家 中国大陆

◎类 别 动作 / 冒险

◎语 言 中文/日文

◎字 幕 中文字幕

◎IMDB评分 N/A

◎IMDB链接 N/A

◎文件格式 XviD+ AC3

◎视频尺寸 720 X300

◎文件大小 1CD 1.43G

◎片 长 100min

◎导 演 李作楠 Tso Nam Lee

虞军豪 Junhao Yu

唐伟文 Weiwen Tang

◎主 演 潘粤明 Yueming Pan

伊能静 Shizuka Inoh

侯勇 Yong Hou

胡可 Ke Hu

帝国秘符剧情介绍:

  普通汽修工人成晰(潘粤明 饰)的女儿突然被人绑架,幕后的操纵者是国际文物犯罪集团的头目大卫,因为成晰父亲(侯勇饰)掌握着有关玉玺的秘密,时间只有24小时。成晰父亲已经去世多年,留下的线索只有"太阳徽章",而能够帮助成晰的人只有研究这个符号的日本历史专家--小野淋子(伊能静 饰)。刑警梅佳(胡可饰)介入调查。她惊讶地发现嫌疑人成晰竟是她青梅竹马的恋人--卫明道,这是她多年来难以释怀的"情结",理智与情感让梅佳必须做出选择,因为她的身份是一名警察。

  在一系列神奇的发现之旅上,600年前的皇家信物一一出现,"剃刀"、"度牒"、"袈裟",无一不暗示着中国历史上第一大悬案:明朝皇帝朱允炆的失踪,指向了价值连城的朱元璋开国玉玺。可是从中华门到栖霞寺,再到明孝陵,总有一只看不见的黑手在推波助澜,渐渐地,成晰陷入到一场策划已久的阴谋之中。此时,梅佳开始实施秘密抓捕行动,她只身来到了交换人质的地点明孝陵。当一个积蓄已久的惊天阴谋浮出水面,到底谁才是最后的高手?

  看似并无关联的一群人身陷帝国秘符的疑团之中,他们都在试图寻找自己的谜底。改变历史进程的战争再度重演,阴谋与爱情、财富与权力,什么才是最终的诉求?历经23年的寻觅等待,无欲无求的真爱会永恒吗?一切似乎还是一场无休止的梦--

Format : AVI

Format/Info : Audio Video Interleave

Format profile : OpenDML

File size : 1.43 GiB

Duration : 1h 28mn

Overall bit rate : 2 319 Kbps

Writing application : AVI-Mux GUI 1.17.8.3, Feb 16 201019:42:50

Video #0

ID : 0

Format : MPEG-4 Visual

Format profile : Advanced [email protected]

Format settings, BVOP : Yes

Format settings, QPel : No

Format settings, GMC : No warppoints

Format settings, Matrix : Default (H.263)

Codec ID : XVID

Codec ID/Hint : XviD

Duration : 1h 28mn

Bit rate : 1 993 Kbps

Width : 720 pixels

Height : 300 pixels

Display aspect ratio : 2.40:1

Frame rate : 29.970 fps

Resolution : 8 bits

Colorimetry : 4:2:0

Scan type : Progressive

Bits/(Pixel*Frame) : 0.308

Stream size : 1.23 GiB (86%)

Writing library : XviD 1.2.1 (UTC 2008-12-04)

Audio #1

ID : 1

Format : AC-3

Format/Info : Audio Coding 3

Codec ID : 2000

Duration : 1h 28mn

Bit rate mode : Constant

Bit rate : 320 Kbps

Channel(s) : 2 channels

Channel positions : L R

Sampling rate : 48.0 KHz

Stream size : 202 MiB (14%)

Alignment : Aligned on interleaves

Interleave, duration : 64 ms (1.92 video frames)

Interleave, preload duration : 192 ms

Title : VTS_01_1_track2_und

帝国秘符影片截图:

帝国秘符电影下载:

提示:由于该资源受到用户投诉或版权方要求,已经停止链接分享

帝国秘符电影评论

更多精彩电影