当前位置:
首页 » 剧情片 » 一座城池

一座城池 The Ideal City.2013.DVDScr.XviD.AC3-SmY 中文

《一座城池》海报

◎译 名 一座城池

◎片 名 The Ideal City

◎年 代 2013

◎国 家 中国大陆

◎类 别 剧情 / 喜剧

◎语 言 汉语普通话

◎字 幕 简体

◎IMDB评分 N/A

◎IMDB链接 N/A

◎文件格式 x264+ AC3

◎视频尺寸 720 X 310

◎文件大小 1CD 1.43G

◎片 长 92min

◎导 演 孙渤涵 Bohan Sun

◎主 演 房祖名 Jaycee Chan

王太利 Taili Wang

小薰 Jingyi Huang

李长江 Changjiang Li

杨地 Di Yang

谢芳 Fang Xie

一座城池剧情介绍:

  改编韩寒小说《一座城池》,导演通过荒诞、幽默描写了"我"、"健叔"、"王超"、"阿雄"等一群不羁青年在一段非常的日子里,于一个城镇闲晃、做梦、回忆的日子。

  从学校肄业的"我(林夕)"(房祖名 饰)因为一次群架事件,和朋友"健叔"(王太利饰)从上海逃到了一个城镇健叔是高我一年的同学,我们住在长江旅馆里,整日在这个城市里闲晃。后来我们认识了朋友王超(杨地饰),从此,王超和他的桑塔纳就和我们混在了一起。我们跟着王超去他的学校看姑娘无意中参与了一次行为艺术,这让我忆起了自杀身亡的同桌和他短暂的爱情。我们仍然在这个城市里闲晃着。我不时做着我的奇特的梦,想着我曾经的女朋友--

  这部讲述了一群人荒诞生活的作品,将人们的无奈、茫然、彷徨与尴尬表现的淋漓尽致。

  就好像一直在找寻着一条路,然而最后发现其实路就在脚下。

Format : AVI

Format/Info : Audio Video Interleave

Format profile : OpenDML

Format settings : rec

File size : 1.43 GiB

Duration : 1h 32mn

Overall bit rate : 2 197 Kbps

Writing application : AVI-Mux GUI 1.17.8.3, Feb 16 201019:42:50

Video #0

ID : 0

Format : MPEG-4 Visual

Format profile : Advanced [email protected]

Format settings, BVOP : 2

Format settings, QPel : No

Format settings, GMC : No warppoints

Format settings, Matrix : Default (H.263)

Codec ID : XVID

Codec ID/Hint : XviD

Duration : 1h 32mn

Bit rate : 1 999 Kbps

Width : 720 pixels

Height : 310 pixels

Display aspect ratio : 2.35:1

Frame rate : 29.970 fps

Color space : YUV

Chroma subsampling : 4:2:0

Bit depth : 8 bits

Scan type : Progressive

Compression mode : Lossy

Bits/(Pixel*Frame) : 0.299

Stream size : 1.30 GiB (91%)

Writing library : XviD 1.2.1 (UTC 2008-12-04)

Audio #1

ID : 1

Format : AC-3

Format/Info : Audio Coding 3

Mode extension : CM (complete main)

Format settings, Endianness : Big

Codec ID : 2000

Duration : 1h 32mn

Bit rate mode : Constant

Bit rate : 192 Kbps

Channel(s) : 2 channels

Channel positions : Front: L R

Sampling rate : 48.0 KHz

Bit depth : 16 bits

Compression mode : Lossy

Stream size : 128 MiB (9%)

Alignment : Aligned on interleaves

Interleave, duration : 64 ms (1.92 video frames)

Interleave, preload duration : 192 ms

Title : yapian

一座城池影片截图:

一座城池电影下载:

提示:由于该资源受到用户投诉或版权方要求,已经停止链接分享

一座城池电影评论

更多精彩电影