当前位置:
首页 » 剧情片 » 金刚王

金刚王:死亡救赎 The.Warth.Of.Vajra.2013.DVDScr.XviD.AC3-SmY 中文

《金刚王》海报

◎译 名 金刚王/金刚王:死亡救赎

◎片 名 The Warth Of Vajra

◎年 代 2013

◎国 家 中国大陆

◎类 别 剧情 / 动作

◎语 言 汉语普通话

◎字 幕 中文

◎IMDB评分 N/A

◎IMDB链接 N/A

◎文件格式 XviD+ AC3

◎视频尺寸 720 x 308

◎文件大小 1CD 1.63G

◎片 长 106min

◎导 演 罗永昌 Wing-cheong Law

◎主 演 释延能 Yanneng Shi ....金刚王

雅玫 Ya-mei Zhang ....枝子

刘承俊 Sung-junYoo ....苍生大介

南贤俊 Popin Hyeon-joon ....疯猿

姜宝成 Baocheng Jiang ....铁幕雷

仓田保昭 Yasuaki Kurata

金刚王剧情介绍:

  金刚王(释延能饰)和哥哥在年幼时被海盗从中国福建贩卖到位于日本的哈迪斯神社,接受残忍的搏杀训练。八年后,已经成为哈迪斯最顶级杀手的金刚王逃回中国,幸遇南少林宗师而成为一个爱国主义者,从事反抗日本侵略活动,几年后被南少林封为金刚王。

  在日本军方授意下,哈迪斯组织在福建南少林脚下的一座巨大的客家土楼内建立了中国哈迪斯金刚神社。他们设立暴坛、伤坛、绝坛三个搏击擂台,借此击杀和征服中国的武林高手以及中国远东军特战部队的各国战俘,并将战果通过世界媒体公诸于众,以此摧毁中国人民的抵抗意志。

  为救助陷入土楼的世界各界人士,金刚王不畏强暴,不惧生死,独闯土楼,与暴坛"狱霸金刚"铁穆雷(姜宝成 饰)、伤坛"魔尸金刚"疯猿(南贤俊饰)、绝坛"冥神金刚"苍生大介(刘承俊 饰)展开了三场惊心动魄的搏击大战--

Format : AVI

Format/Info : Audio Video Interleave

Format profile : OpenDML

Format settings : rec

File size : 1.63 GiB

Duration : 1h 46mn

Overall bit rate : 2 195 Kbps

Writing application : AVI-Mux GUI 1.17.8.3, Feb 16 201019:42:50

Video #0

ID : 0

Format : MPEG-4 Visual

Format profile : Advanced [email protected]

Format settings, BVOP : 2

Format settings, QPel : No

Format settings, GMC : No warppoints

Format settings, Matrix : Default (H.263)

Codec ID : XVID

Codec ID/Hint : XviD

Duration : 1h 46mn

Bit rate : 1 996 Kbps

Width : 720 pixels

Height : 308 pixels

Display aspect ratio : 2.35:1

Frame rate : 29.970 fps

Color space : YUV

Chroma subsampling : 4:2:0

Bit depth : 8 bits

Scan type : Progressive

Compression mode : Lossy

Bits/(Pixel*Frame) : 0.300

Stream size : 1.48 GiB (91%)

Writing library : XviD 1.2.1 (UTC 2008-12-04)

Audio #1

ID : 1

Format : AC-3

Format/Info : Audio Coding 3

Mode extension : CM (complete main)

Format settings, Endianness : Big

Codec ID : 2000

Duration : 1h 46mn

Bit rate mode : Constant

Bit rate : 192 Kbps

Channel(s) : 2 channels

Channel positions : Front: L R

Sampling rate : 48.0 KHz

Bit depth : 16 bits

Compression mode : Lossy

Stream size : 146 MiB (9%)

Alignment : Aligned on interleaves

Interleave, duration : 64 ms (1.92 video frames)

Interleave, preload duration : 192 ms

Title : yapian

金刚王影片截图:

金刚王电影下载:

提示:由于该资源受到用户投诉或版权方要求,已经停止链接分享

金刚王电影评论

更多精彩电影