当前位置:
首页 » 动作片 » 白狐

白狐 The.Fox.Lover.2013.DVDScr.XviD.AC3-SmY 中文

《白狐》海报

◎译 名 白狐

◎片 名 The Fox Lover

◎年 代 2013

◎国 家 中国大陆

◎类 别 动作 / 爱情 / 奇幻 / 古装

◎语 言 汉语普通话

◎字 幕 中文

◎IMDB评分 N/A

◎IMDB链接 N/A

◎文件格式 XviD+ AC3

◎视频尺寸 720 X304

◎文件大小 1CD 2.04G

◎片 长 125min

◎导 演 牛朝阳 Chaoyang Niu

◎主 演 钟欣潼 Gillian Chung ....小翠

张智霖 Julian Cheung ....王元丰

惠英红 Kara Hui ....狐母

高虎 Hu Gao ....海蝠王

游本昌 Benchang You ....沙夜大师

巩新亮 Miumiu ....游娘

关智斌 Kenny Kwan ....智精

郭明翔 Ming-xiang Guo ....季遥

白狐剧情介绍:

  在仙魔世界,宇宙间最大的恶魔海蝠王正危害人间,天下惶惶!狐仙谷的疯丫头小翠却爱上了凡人傻小子王元丰,而王元丰身上隐藏的至阳玄魄,正是邪魔妖道的终极克星!当正邪大战与痴情傻爱无可避免地缠绕在一起,一出感天动地的真爱传奇,澎湃上映。

Format : AVI

Format/Info : Audio Video Interleave

Format profile : OpenDML

File size : 2.04 GiB

Duration : 2h 5mn

Overall bit rate : 2 325 Kbps

Writing application : AVI-Mux GUI 1.17.8.3, Feb 16 201019:42:50

Video #0

ID : 0

Format : MPEG-4 Visual

Format profile : Advanced [email protected]

Format settings, BVOP : Yes

Format settings, QPel : No

Format settings, GMC : No warppoints

Format settings, Matrix : Default (H.263)

Codec ID : XVID

Codec ID/Hint : XviD

Duration : 2h 5mn

Bit rate : 1 999 Kbps

Width : 720 pixels

Height : 304 pixels

Display aspect ratio : 2.35:1

Frame rate : 29.970 fps

Resolution : 8 bits

Colorimetry : 4:2:0

Scan type : Progressive

Bits/(Pixel*Frame) : 0.305

Stream size : 1.75 GiB (86%)

Writing library : XviD 1.2.1 (UTC 2008-12-04)

Audio #1

ID : 1

Format : AC-3

Format/Info : Audio Coding 3

Codec ID : 2000

Duration : 2h 5mn

Bit rate mode : Constant

Bit rate : 320 Kbps

Channel(s) : 2 channels

Channel positions : L R

Sampling rate : 48.0 KHz

Stream size : 287 MiB (14%)

Alignment : Aligned on interleaves

Interleave, duration : 64 ms (1.92 video frames)

Interleave, preload duration : 192 ms

Title : VTS_01_1_track2_und

白狐影片截图:

白狐电影下载:

提示:推荐使用BitComet、Utorrent、QQ旋风、迅雷下载白狐。喜欢在线看的朋友可以把种子上传到百度网盘、115网盘,离线下载完手机电脑都可以在线看。

白狐电影评论

更多精彩电影