当前位置:
首页 » 爱情片 » 私奔B计划

私奔B计划/我飞至月球 Un.Plan.Parfait.2012.BRRip.x264.AC3-SmY 中文

《私奔B计划》海报

译 名: 私奔B计划/完美计划/我飞至月球

片 名: Un Plan Parfait

电影类型:爱情/喜剧/动作/冒险

国家/地区: 法国

片 长: 104min

年 代: 2012

导 演: 帕斯卡尔·舒梅Pascal Chaumeil

主 演: 黛安·克鲁格 Diane Kruger

丹尼·伯恩 DanyBoon

玛龙·莱瓦纳 Malonn Lévana

伊什尼·齐科特Etienne Chicot

私奔B计划剧情介绍:

由德国美女黛安.克鲁格主演。

  影片讲述了女主人公伊萨贝拉为了绕过她家所有人的第一次婚姻都会破裂的厄运,她想出了能嫁给她爱的人的策略:找个好骗的,诱惑他、嫁给他然后再离婚。这确实是个完美的计划,如果她要骗的人不是那个令人受不了的让-伊夫.贝尔蒂埃的话。他是本旅游指南的编辑,于是她追着他从乞力马扎罗山一直到莫斯科,开始了一场无论安乐尤其是患难的结婚旅行.

Format : Matroska

File size : 2.04 GiB

Duration : 1h 44mn

Overall bit rate : 2 792 Kbps

Encoded date : UTC 2010-02-22 21:41:31

Writing application : mkvmerge v5.9.0 ('On The Loose') built on Dec 9 2012 15:37:01

Writing library : libebml v1.3.0 + libmatroska v1.4.0

Video #1

ID : 1

Format : AVC

Format/Info : Advanced Video Codec

Format profile : [email protected]

Format settings, CABAC : Yes

Format settings, ReFrames : 4 frames

Muxing mode : Container [email protected]

Codec ID : V_MPEG4/ISO/AVC

Duration : 1h 44mn

Bit rate : 2 416 Kbps

Nominal bit rate : 2 500 Kbps

Width : 1 280 pixels

Height : 546 pixels

Display aspect ratio : 2.35:1

Frame rate : 24.000 fps

Resolution : 8 bits

Colorimetry : 4:2:0

Scan type : Progressive

Bits/(Pixel*Frame) : 0.144

Stream size : 1.77 GiB (87%)

Writing library : x264 core 116 r2074 2641b9e

Audio #2

ID : 2

Format : AC-3

Format/Info : Audio Coding 3

Codec ID : A_AC3

Duration : 1h 44mn

Bit rate mode : Constant

Bit rate : 320 Kbps

Channel(s) : 2 channels

Channel positions : L R

Sampling rate : 48.0 KHz

Stream size : 240 MiB (11%)

私奔B计划影片截图:

《私奔B计划》剧照-1

《私奔B计划》剧照-2

《私奔B计划》剧照-3

私奔B计划电影下载:

提示:推荐使用BitComet、Utorrent、QQ旋风、迅雷下载私奔B计划。喜欢在线看的朋友可以把种子上传到百度网盘、115网盘,离线下载完手机电脑都可以在线看。

私奔B计划电影评论

更多精彩电影