当前位置:
首页 » 剧情片 » 南泥湾

南泥湾.Wan.Frontier.2013.1080p.HDRip.x264.AC3-SmY 中英

《南泥湾》海报

◎译 名 南泥湾

◎片 名 On The Nan Ni Wan Frontier

◎年 代 2013

◎国 家 中国大陆

◎类 别 剧情 / 历史 / 战争

◎语 言 汉语普通话

◎字 幕 中文/英文

◎IMDB评分 N/A

◎IMDB链接 N/A

◎文件格式 X264+ AC3

◎视频尺寸 1920 X 1080

◎文件大小 1CD 3.02G

◎片 长 107min

◎导 演 彭丹 Peng Dan

◎主 演 彭丹 Peng Dan

任帅 Reng Shuai

姬他 Yi Ta

南泥湾剧情介绍:

  1941年,侵华日军向抗日根据地发起了疯狂的"扫荡"和"清乡",同时,蒋介石制造了震惊中外的皖南事变,掀起了第二次"反共"高潮。中国人民的抗日战争进入了最困难的时期。

  为了打破侵华日军的进攻和国民党的经济封锁所造成的极大困难,中国共产党领导的陕甘宁边区政府,号召边区军民"一边战斗、一边生产",开展了轰轰烈烈的大生产运动。在"南泥湾",一群来自五湖四海的中华儿女,创造了一个令世人赞叹的奇迹,谱写了一首壮丽的革命史诗。

  本片讲述的就是1941年春,八路军一二0师三五九旅长兼政委王震的率领下,连长老周(任帅饰)奉命开进南泥湾,披荆斩棘,战胜重重困难,将荒无人烟的南泥湾建设成了"平川稻谷香,肥鸭遍池塘。到处是庄稼,遍地是牛羊"的陕北好江南。

  影片以一名八路军女战士"苗子"(彭丹饰)的日记和心路历程为线索,描述了在那段激情燃烧的岁月里,在轰轰烈烈的大生产运动中,杂糅了革命英雄主义与浪漫主义的战地爱情故事。

Format : Matroska

File size : 3.02 GiB

Duration : 1h 47mn

Overall bit rate : 4 011 Kbps

Encoded date : UTC 2010-02-22 21:41:31

Writing application : mkvmerge v5.9.0 ('On The Loose') built on Dec 9 2012 15:37:01

Writing library : libebml v1.3.0 + libmatroska v1.4.0

Video #1

ID : 1

Format : AVC

Format/Info : Advanced Video Codec

Format profile : [email protected]

Format settings, CABAC : Yes

Format settings, ReFrames : 2 frames

Muxing mode : Header stripping

Codec ID : V_MPEG4/ISO/AVC

Duration : 1h 47mn

Bit rate : 3 739 Kbps

Width : 1 920 pixels

Height : 1 080 pixels

Display aspect ratio : 16:9

Frame rate mode : Variable

Frame rate : 25.000 fps

Color space : YUV

Chroma subsampling : 4:2:0

Bit depth : 8 bits

Scan type : Progressive

Bits/(Pixel*Frame) : 0.072

Stream size : 2.81 GiB (93%)

Writing library : avc encoder v1.9

Audio #2

ID : 2

Format : AC-3

Format/Info : Audio Coding 3

Mode extension : CM (complete main)

Muxing mode : Header stripping

Codec ID : A_AC3

Duration : 1h 47mn

Bit rate mode : Constant

Bit rate : 192 Kbps

Channel(s) : 2 channels

Channel positions : Front: L R

Sampling rate : 44.1 KHz

Bit depth : 16 bits

Compression mode : Lossy

Stream size : 148 MiB (5%)

南泥湾影片截图:

《南泥湾》剧照-1

《南泥湾》剧照-2

《南泥湾》剧照-3

南泥湾电影下载:

提示:由于该资源受到用户投诉或版权方要求,已经停止链接分享

南泥湾电影评论

更多精彩电影