当前位置:
首页 » 剧情片 » 致命闪玩

致命闪玩 Flash.Play.2013.1080p.HDRip.x264.AC3-SmY 中文

《致命闪玩》海报

◎译 名 致命闪玩

◎片 名 Flash Play

◎年 代 2013

◎国 家 中国大陆

◎类 别 剧情 / 悬疑 / 冒险

◎语 言 汉语普通话

◎字 幕 中文

◎IMDB评分 N/A

◎IMDB链接 N/A

◎文件格式 X264+ AC3

◎视频尺寸 1920 X 1080

◎文件大小 1CD 2.43G

◎片 长 89min

◎导 演 咸旭初 Xu-chu Xian

◎主 演 方力申 Alex Fong ....阿德

李威 Wei Lee ....大飞

张馨予 Xinyu Zhang ....晓青

洪天明 Timmy Hung ....橡皮

邹少官 Shao-guan Zhou ....斧头

杨恭如 Kristy Yang ....孟医生

郭涛 Tao Guo ....张警官

周秀娜 Chrissie Chau ....Mina

徐冬冬 Dongdong Xu ....冬冬

曹云金 YunJin Cao ....过客

游本昌 Benchang You ....老绅士

致命闪玩剧情介绍:

  失恋的宅男阿德(方力申 饰)与女友(周秀娜饰)分手之后变得比原来更加呆板,在好友的带领下他参加了都市游戏"闪玩",在经历了楼顶异装Party、夜店速配等几次充满刺激的"闪玩"经历后阿德渐渐不能自己,并和晓青(张馨予饰)、大飞(李威 饰)、橡皮(洪天明 饰)、斧头(邹少官饰)参加了一次更加刺激的"湖中野游"户外闪玩,随后却变成了四死一伤的惨剧,而唯一的亲历者却神志不清陷入昏迷状态,随着警方的介入,事实的真相逐渐清晰--

Format : Matroska

File size : 2.43 GiB

Duration : 1h 29mn

Overall bit rate : 3 900 Kbps

Encoded date : UTC 2010-02-22 21:41:31

Writing application : mkvmerge v5.9.0 ('On The Loose') built on Dec 9 2012 15:37:01

Writing library : libebml v1.3.0 + libmatroska v1.4.0

Video #1

ID : 1

Format : AVC

Format/Info : Advanced Video Codec

Format profile : [email protected]

Format settings, CABAC : Yes

Format settings, ReFrames : 2 frames

Muxing mode : Header stripping

Codec ID : V_MPEG4/ISO/AVC

Duration : 1h 29mn

Bit rate : 3 630 Kbps

Width : 1 920 pixels

Height : 1 080 pixels

Display aspect ratio : 16:9

Frame rate mode : Variable

Frame rate : 25.000 fps

Color space : YUV

Chroma subsampling : 4:2:0

Bit depth : 8 bits

Scan type : Progressive

Bits/(Pixel*Frame) : 0.070

Stream size : 2.26 GiB (93%)

Writing library : avc encoder v1.9

Audio #2

ID : 2

Format : AC-3

Format/Info : Audio Coding 3

Mode extension : CM (complete main)

Muxing mode : Header stripping

Codec ID : A_AC3

Duration : 1h 29mn

Bit rate mode : Constant

Bit rate : 192 Kbps

Channel(s) : 2 channels

Channel positions : Front: L R

Sampling rate : 44.1 KHz

Bit depth : 16 bits

Compression mode : Lossy

Stream size : 123 MiB (5%)

致命闪玩影片截图:

《致命闪玩》剧照-1

《致命闪玩》剧照-2

《致命闪玩》剧照-3

致命闪玩电影下载:

提示:由于该资源受到用户投诉或版权方要求,已经停止链接分享

致命闪玩电影评论

更多精彩电影