当前位置:
首页 » 动画片 » 开心超人

开心超人 Happy Heroes1080p WEB-DL x264 AAC-SmY 中英

《开心超人》海报

◎译 名 开心超人

◎片 名 Happy Heroes

◎年 代 2013

◎国 家 中国大陆

◎类 别 动画 / 冒险

◎语 言 汉语普通话

◎字 幕 中文 / 英文

◎IMDB评分 N/A

◎IMDB链接 N/A

◎文件格式 X264+ AAC

◎视频尺寸 1916 X 1074

◎文件大小 1CD 1.50G

◎片 长 89min

◎导 演 黄伟明 Weiming Huang

◎主 演 刘红韵 Hong-yun Liu ....开心超人(配音)

祖晴 Qing Zu ....粗心超人(配音)

高全胜 Quansheng Gao ....大大怪(配音)

邓玉婷 Yuting Deng ....甜心超人/宅博士(配音)

严彦子 Yan Yan Zi ....小小怪(配音)

金铭 Ming Jin ....阿婆(配音)

陈明 Ming Chen ....变形怪(配音)

王一鸣 Yi-ming Wang ....飞天肥仔(配音)

佟大为 Dawei Tong ....话唠推销员(配音)

刘一男 Yi Nan Liu ....螺丝钉/螺丝帽(配音)

李惠玲 Hui Ling Li ....珍珍/网购女/长毛(配音)

杨洋 Yang Yang ....珍珍妈(配音)

开心超人剧情介绍:

  电影《开心超人》主要讲述在神奇的星星球上,开心超人、甜心超人、花心超人、粗心超人、小心超人五个可爱的小超人为保卫家园团结一心,与大大怪将军和小小怪下士代表的邪恶力量奋勇斗争,挫败敌人阴谋,最终赢得胜利的故事。

File size : 1.50 GiB

Duration : 1h 29mn

Overall bit rate : 2 407 Kbps

Video

Format : AVC

Format/Info : Advanced Video Codec

Format profile : [email protected]

Format settings, CABAC : Yes

Format settings, ReFrames : 4 frames

Muxing mode : Container [email protected]

Duration : 1h 29mn

Bit rate : 2 275 Kbps

Nominal bit rate : 2 328 Kbps

Width : 1 916 pixels

Height : 1 074 pixels

Display aspect ratio : 16:9

Frame rate mode : Variable

Frame rate : 24.000 fps

Resolution : 8 bits

Colorimetry : 4:2:0

Scan type : Progressive

Bits/(Pixel*Frame) : 0.046

Stream size : 1.45 GiB (97%)

Writing library : x264 core 128

Audio

Format : AAC

Format/Info : Advanced Audio Codec

Format version : Version 4

Format profile : LC

Format settings, SBR : Yes

Format settings, PS : No

Duration : 1h 29mn

Bit rate : 70.7 Kbps

Channel(s) : 2 channels

Channel positions : L R

Sampling rate : 48.0 KHz

Resolution : 16 bits

Stream size : 47.5 MiB (3%)

开心超人影片截图:

《开心超人》剧照-1

《开心超人》剧照-2

开心超人电影下载:

提示:推荐使用BitComet、Utorrent、QQ旋风、迅雷下载开心超人。喜欢在线看的朋友可以把种子上传到百度网盘、115网盘,离线下载完手机电脑都可以在线看。

开心超人电影评论

更多精彩电影