当前位置:
首页 » 惊悚片 » 牙鬼

牙鬼 The Haunting of Helena.2012.720p.BRRip.x264.AC3-SmY 中文

《牙鬼》海报

◎译 名 牙鬼

◎片 名 The Haunting of Helena

◎年 代 2012

◎国 家 意大利

◎类 别 惊悚/恐怖

◎语 言 英语

◎字 幕 中文

◎IMDB评分 4.2/10 from 768 users

◎文件格式 x264+ AC3

◎视频尺寸 1280x680

◎文件大小 1CD 2.02 GB

◎片 长 1h 27mn

◎导 演 Christian Bisceglia

Ascanio Malgarini

◎主 演 Harriet MacMasters-Green ... Sophia

Sabrina Jolie Perez ... Helena

Jarreth J. Merz ... Robert

Matt Patresi ... Patrick

Paolo Paoloni ... Ferri

Giuliano Montaldo ... Dr. Fabiano

Susanna Cornacchia ... The Fairy

Marco Fattibene ... Battista Greco

Lucrezia Tosi ... Ghost Child

Massimiliano Carnevale ... Asylum Patient

Angela Presepi ... Miss Cavendish

Marco Basile ... Marco

Melania Maccaferri ... Nurse Manuela

Alice Filippi ... Nurse Alice

Alessia Cannavale ... Baby Sitter

牙鬼剧情介绍:

  一位单亲妈妈带着自己的女儿搬进了新家,很快呢,小女孩的第一颗乳齿就掉落了,小女孩说晚上有牙仙来探访她,告诉了她这个新家似乎有一个不为人知的秘密。

Asingle mother moves into a new house with her daughter. Soonafter theyoung girl has her first baby tooth fall off, she begins torecount thatshe is having nocturnal visits by a tooth fairy. It seemsthe house has asinister history.

Format : Matroska

File size : 2.02 GiB

Duration : 1h 27mn

Overall bit rate : 3 306 Kbps

Encoded date : UTC 2010-02-22 21:41:31

Writing application : mkvmerge v5.9.0 ('On The Loose') built on Dec 9 2012 15:37:01

Writing library : libebml v1.3.0 + libmatroska v1.4.0

Video #1

ID : 1

Format : AVC

Format/Info : Advanced Video Codec

Format profile : [email protected]

Format settings, CABAC : Yes

Format settings, ReFrames : 4 frames

Muxing mode : Container [email protected]

Codec ID : V_MPEG4/ISO/AVC

Duration : 1h 27mn

Bit rate : 2 920 Kbps

Nominal bit rate : 3 000 Kbps

Width : 1 280 pixels

Height : 680 pixels

Display aspect ratio : 1.882

Frame rate : 23.976 fps

Resolution : 8 bits

Colorimetry : 4:2:0

Scan type : Progressive

Bits/(Pixel*Frame) : 0.140

Stream size : 1.79 GiB (88%)

Writing library : x264 core 116 r2074 2641b9e

Audio #2

ID : 2

Format : AC-3

Format/Info : Audio Coding 3

Codec ID : A_AC3

Duration : 1h 27mn

Bit rate mode : Constant

Bit rate : 320 Kbps

Channel(s) : 2 channels

Channel positions : L R

Sampling rate : 48.0 KHz

Stream size : 201 MiB (10%)

牙鬼影片截图:

牙鬼电影下载:

提示:由于该资源受到用户投诉或版权方要求,已经停止链接分享

牙鬼电影评论

更多精彩电影