当前位置:
首页 » 惊悚片 » 远离巴里奥

远离巴里奥 Barrio Tales 2012.720P.WEB-DL x264.AC3-SmY 中文

◎译 名 远离巴里奥

◎片 名 Barrio Tales

◎年 代 2012

◎国 家 美国

◎类 别 恐怖

◎语 言 英语/西班牙语

◎字 幕 内嵌中文字幕

◎IMDB评分 5.3/10 - 42

◎文件格式 RMVB

◎视频尺寸 1280x 720

◎文件大小 756.04 MB

◎片 长 82 mins

◎导 演 Jarret Tarnol

◎主 演

Carson Aune ... Cal

Maritza Brikisak ... Abuela (as Maritza Graciela)

Hunter Cope ... Les

Ana Corbi ... Maria

Aaron Jaeger ... Bryan

Alfredo De Leon ... Missing Person

Fabian Lopez ... Christian

Christopher Meyer ... Chad

Pollard ... El Monstruo

远离巴里奥剧情介绍:

  三个故事《玛利亚》《提欧叔叔的快餐车》《怪物》组成的一部墨西哥题材的恐怖电影。这是一个巴里奥斯的故事。第一个故事,主人公特雷夫家里非常有钱。他在父母外出的时候叫了一群朋友来家里Happy,聚会中途,新来的仆人玛利亚被众人调侃。一人在调戏仆人时不慎失手,将玛利亚摔死在泳池里。玛利亚的奶奶懂巫术,她利用巫术让3个该受到惩罚的人分别失明 失聪 变哑...更多剧情请看由2kll字幕组翻译出品的电影《巴黎奥传说》

TwoAmerican teenagers in search of cheap drugs, trespass into the seedytown of Barrio, Mexico. What they find instead is a disturbed storyteller and three tales filled with blood, witches and a cannibalistictaco chef.

Format : Matroska

File size : 1.91 GiB

Duration : 1h 22mn

Overall bit rate : 3 331 Kbps

Encoded date : UTC 2010-02-22 21:41:31

Writing application : mkvmerge v5.9.0 ('On The Loose') built on Dec 9 2012 15:37:01

Writing library : libebml v1.3.0 + libmatroska v1.4.0

Video #1

ID : 1

Format : AVC

Format/Info : Advanced Video Codec

Format profile : [email protected]

Format settings, CABAC : Yes

Format settings, ReFrames : 4 frames

Muxing mode : Header stripping

Codec ID : V_MPEG4/ISO/AVC

Duration : 1h 22mn

Bit rate : 3 000 Kbps

Width : 1 280 pixels

Height : 720 pixels

Display aspect ratio : 16:9

Frame rate : 23.976 fps

Color space : YUV

Chroma subsampling : 4:2:0

Bit depth : 8 bits

Scan type : Progressive

Bits/(Pixel*Frame) : 0.136

Stream size : 1.69 GiB (88%)

Writing library : x264 core 116 r2074 2641b9e

Audio #2

ID : 2

Format : AC-3

Format/Info : Audio Coding 3

Mode extension : CM (complete main)

Muxing mode : Header stripping

Codec ID : A_AC3

Duration : 1h 22mn

Bit rate mode : Constant

Bit rate : 320 Kbps

Channel(s) : 2 channels

Channel positions : Front: L R

Sampling rate : 48.0 KHz

Bit depth : 16 bits

Compression mode : Lossy

Stream size : 188 MiB (10%)

远离巴里奥影片截图:

《远离巴里奥》海报

《远离巴里奥》剧照-1

远离巴里奥电影下载:

提示:由于该资源受到用户投诉或版权方要求,已经停止链接分享

远离巴里奥电影评论

更多精彩电影